Синие и серые / The Blue & the Gray / Сезон 1 / Серии: 1-3 из 3 (Эндрю В. МакЛэглен / Andrew V. McLaglen) [1982, США, драма, история, DVDRemux] AVO (Визгунов) + Original + 7хSub

Ответить на тему
Статистика раздачи
Размер:  14,34 GB   |    Зарегистрирован:  11 дней   |    Скачан:  0 раз

Полного источника не было: Никогда

 
   
 
 
Автор Сообщение

Domino ®

Пол: Не указан

Стаж: 1 год 5 месяцев

Сообщений: 437

Создавать темы 11-Июл-2019 16:34

[Цитировать]

-Синие и серые / The Blue & The Gray-The Complete MiniSeries
Год выпуска: 14 ноября – 17 ноября 1982
Страна: США
Жанр: драма, исторический, военный
Продолжительность: 02:29:29 + 01:35:25 + 02:20:52
Режиссёр: Эндрю В. МакЛэглен (Andrew V. McLaglen)-В ролях: Стейси Кич (Stacy Keach), Джон Хаммонд (John Hammond), Ллойд Бриджес (Lloyd Bridges), Джеральдин Пейдж (Geraldine Page), Грегори Пек (Gregory Peck)-Описание:
Вирджиния 1859 год. Молодой Джон Гейзер, сын южного фермера отправляется на Север работать в газету своего дяди в качестве корреспондента и художника. Он знакомится с загадочным человеком Джонасом Стилом. Приближается гражданская война между Севером и Югом. Однако, Джон дает клятву оставаться корреспондентом и не принимать не одну из сторон.. Удастся ли ему сдержать ее? Ведь на одной стороне его друзья и возлюбленная, а на другой отец, мать, сестра и братья.
- -Аудиодорожка 01: AC3 | 48khz | 2ch | 224kb/s Авторский (Визгунов)
Аудиодорожка 02: AC3 | 48khz | 2ch | 192kb/s Оригинал (english)
Субтитры : английские, французские, испанские, португальские, китайские, корейские, тайские
Разбивка на главы : есть
Реклама : нет-Качество: DVD-Remux
Формат: MKV
Видео кодек: MPEG2
Аудио кодек: AC3-Видео: MPEG-2 Video | NTSC | 4:3 | 720x480 | 29.970 fps | ~4991/9800 Kbps/

Media info

Общее
Уникальный идентификатор : 111234058795429010387431992042853432784 (0x53AEE685011A76EA95A4774BE77EFDD0)
Полное имя : E:\Ремуксы сериалов\[AORE] The Blue And The Gray (1982)\The Blue and the Gray (1982) Part 1 (DVDRemux). RGzsRutracker.mkv
Формат : Matroska
Версия формата : Version 4
Размер файла : 5,40 Гбайт
Продолжительность : 2 ч. 22 м.
Режим общего битрейта : Переменный
Общий поток : 5425 Кбит/сек
Дата кодирования : UTC 2019-07-10 12:48:49
Программа кодирования : mkvmerge v35.0.0 ('All The Love In The World') 64-bit
Библиотека кодирования : libebml v1.3.9 + libmatroska v1.5.2
Видео
Идентификатор : 1
Формат : MPEG Video
Версия формата : Version 2
Профиль формата : Main@Main
Настройки формата : CustomMatrix / BVOP
Параметр BVOP формата : Да
Параметр матрицы формата : Выборочная
Параметр GOP формата : M=3, N=12
Идентификатор кодека : V_MPEG2
Идентификатор кодека/Информация : MPEG 1 or 2 Video
Продолжительность : 2 ч. 22 м.
Вид битрейта : Переменный
Битрейт : 4991 Кбит/сек
Максимальный битрейт : 9800 Кбит/сек
Ширина : 720 пикселей
Высота : 480 пикселей
Соотношение сторон : 4:3
Режим частоты кадров : Переменный
Частота кадров : 24,000 кадра/сек
Частота кадров в оригинале : 29,970 (30000/1001) кадров/сек
Цветовое пространство : YUV
Субдискретизация насыщенности : 4:2:0
Битовая глубина : 8 бит
Метод сжатия : С потерями
Бит/(Пиксели*Кадры) : 0.602
Размер потока : 4,97 Гбайт (92%)
Язык : English
Default : Нет
Forced : Нет
Аудио #1
Идентификатор : 2
Формат : AC-3
Формат/Информация : Audio Coding 3
Коммерческое название : Dolby Digital
Идентификатор кодека : A_AC3
Продолжительность : 2 ч. 22 м.
Вид битрейта : Постоянный
Битрейт : 224 Кбит/сек
Каналы : 2 канала
ChannelLayout : L R
Частота : 48,0 КГц
Частота кадров : 31,250 кадров/сек (1536 SPF)
Битовая глубина : 16 бит
Метод сжатия : С потерями
Размер потока : 228 Мбайт (4%)
Заголовок : AVO (Визгунов)
Язык : Russian
ServiceKind/String : Complete Main
Default : Да
Forced : Нет
Аудио #2
Идентификатор : 3
Формат : AC-3
Формат/Информация : Audio Coding 3
Коммерческое название : Dolby Digital
Идентификатор кодека : A_AC3
Продолжительность : 2 ч. 22 м.
Вид битрейта : Постоянный
Битрейт : 192 Кбит/сек
Каналы : 2 канала
ChannelLayout : L R
Частота : 48,0 КГц
Частота кадров : 31,250 кадров/сек (1536 SPF)
Битовая глубина : 16 бит
Метод сжатия : С потерями
Размер потока : 196 Мбайт (4%)
Заголовок : Stereo
Язык : English
ServiceKind/String : Complete Main
Default : Нет
Forced : Нет
Текст #1
Идентификатор : 4
Формат : UTF-8
Идентификатор кодека : S_TEXT/UTF8
Идентификатор кодека/Информация : UTF-8 Plain Text
Продолжительность : 2 ч. 18 м.
Битрейт : 101 бит/сек
ElementCount : 1522
Размер потока : 103 Кбайт (0%)
Язык : English
Default : Нет
Forced : Нет
Текст #2
Идентификатор : 5
Формат : VobSub
Режим смешивания : zlib
Идентификатор кодека : S_VOBSUB
Идентификатор кодека/Информация : Picture based subtitle format used on DVDs
Продолжительность : 2 ч. 18 м.
Битрейт : 3283 бит/сек
ElementCount : 1507
Размер потока : 3,25 Мбайт (0%)
Язык : English
Default : Нет
Forced : Нет
Текст #3
Идентификатор : 6
Формат : VobSub
Режим смешивания : zlib
Идентификатор кодека : S_VOBSUB
Идентификатор кодека/Информация : Picture based subtitle format used on DVDs
Продолжительность : 2 ч. 20 м.
Битрейт : 4190 бит/сек
ElementCount : 1524
Размер потока : 4,23 Мбайт (0%)
Язык : French
Default : Нет
Forced : Нет
Текст #4
Идентификатор : 7
Формат : VobSub
Режим смешивания : zlib
Идентификатор кодека : S_VOBSUB
Идентификатор кодека/Информация : Picture based subtitle format used on DVDs
Продолжительность : 2 ч. 20 м.
Битрейт : 3131 бит/сек
ElementCount : 1523
Размер потока : 3,15 Мбайт (0%)
Язык : Spanish
Default : Нет
Forced : Нет
Текст #5
Идентификатор : 8
Формат : VobSub
Режим смешивания : zlib
Идентификатор кодека : S_VOBSUB
Идентификатор кодека/Информация : Picture based subtitle format used on DVDs
Продолжительность : 2 ч. 21 м.
Битрейт : 2982 бит/сек
ElementCount : 1378
Размер потока : 3,01 Мбайт (0%)
Язык : Portuguese
Default : Нет
Forced : Нет
Текст #6
Идентификатор : 9
Формат : VobSub
Режим смешивания : zlib
Идентификатор кодека : S_VOBSUB
Идентификатор кодека/Информация : Picture based subtitle format used on DVDs
Продолжительность : 2 ч. 19 м.
Битрейт : 2846 бит/сек
ElementCount : 1527
Размер потока : 2,84 Мбайт (0%)
Язык : Chinese
Default : Нет
Forced : Нет
Текст #7
Идентификатор : 10
Формат : VobSub
Режим смешивания : zlib
Идентификатор кодека : S_VOBSUB
Идентификатор кодека/Информация : Picture based subtitle format used on DVDs
Продолжительность : 2 ч. 20 м.
Битрейт : 3011 бит/сек
ElementCount : 1526
Размер потока : 3,04 Мбайт (0%)
Язык : Korean
Default : Нет
Forced : Нет
Текст #8
Идентификатор : 11
Формат : VobSub
Режим смешивания : zlib
Идентификатор кодека : S_VOBSUB
Идентификатор кодека/Информация : Picture based subtitle format used on DVDs
Продолжительность : 2 ч. 19 м.
Битрейт : 2664 бит/сек
ElementCount : 1687
Размер потока : 2,65 Мбайт (0%)
Язык : Thai
Default : Нет
Forced : Нет
Меню
00:00:00.000 : en:Chapter 01
00:03:08.621 : en:Chapter 02
00:06:22.715 : en:Chapter 03
00:12:16.068 : en:Chapter 04
00:16:46.905 : en:Chapter 05
00:27:41.993 : en:Chapter 06
00:29:42.280 : en:Chapter 07
00:43:29.940 : en:Chapter 08
00:46:26.917 : en:Chapter 09
00:50:40.804 : en:Chapter 10
00:56:23.980 : en:Chapter 11
01:01:08.064 : en:Chapter 12
01:04:52.722 : en:Chapter 13
01:08:08.150 : en:Chapter 14
01:14:04.373 : en:Chapter 15
01:16:31.186 : en:Chapter 16
01:23:06.047 : en:Chapter 17
01:26:29.918 : en:Chapter 18
01:29:48.883 : en:Chapter 19
01:33:12.853 : en:Chapter 20
01:43:22.262 : en:Chapter 21
01:57:24.771 : en:Chapter 22
02:00:22.281 : en:Chapter 23
02:03:24.830 : en:Chapter 24
02:07:07.419 : en:Chapter 25
02:08:48.787 : en:Chapter 26
02:12:26.238 : en:Chapter 27
02:17:21.366 : en:Chapter 28

Скриншоты

Остальные раздачи Мои ремуксы
[torrents24.ru].t88601.torrent 
Торрент: Зарегистрирован [ 2019-07-11 16:35 ] · 2E2B83D5947BC0E8F114E550BAA8CD4F6E3809E7

Скачать .torrent

Скачать

72 KB

Статус: проверено
Скачан: 0 раз
Размер: 14,34 GB
terms.php
[Профиль] [ЛС]
Показать сообщения:    
Ответить на тему

Текущее время: 22-Июл 19:39

Часовой пояс: UTC + 3



Вы не можете начинать темы
Вы не можете отвечать на сообщения
Вы не можете редактировать свои сообщения
Вы не можете удалять свои сообщения
Вы не можете голосовать в опросах
Вы не можете прикреплять файлы к сообщениям
Вы можете скачивать файлы

Интересное в сети