(Pop-Rock) [CD] Sting & Shaggy - 44/876 (Super Deluxe Edition) - 2 CD - 2018, FLAC (tracks+.cue), lossless

Ответить на тему
Статистика раздачи
Размер:  634 MB   |    Зарегистрирован:  12 дней   |    Скачан:  0 раз

Полного источника не было: Никогда

 
   
 
 
Автор Сообщение

folk ®

Пол: Не указан

Стаж: 1 год 4 месяца

Сообщений: 150

Создавать темы 10-Июл-2019 15:34

[Цитировать]


44/876 (Super Deluxe Edition)
Жанр: Pop-Rock
Носитель: CD
Страна-производитель диска (релиза): USA
Год издания: 2018
Издатель (лейбл): A&M Records
Страна исполнителя (группы): UK-US
Аудиокодек: FLAC (*.flac)
Тип рипа: tracks+.cue
Продолжительность: 01:36:36
Источник: Nafta Music
Наличие сканов в содержимом раздачи: да
Корректность рипа: В оригинале не было применено сжатие при конвертировании во Флак (FLAC Level 0). Для приведения в соответствие правилам пережато во FLAC Level 5 с сохранением тэгов

CD 1 - 00:42:58

ТRACKLIST:
01 - 44-876 (feat. Morgan Heritage & Aidonia) (00:03:00)
02 - Morning Is Coming (00:03:11)
03 - Waiting For The Break of Day (00:03:19)
04 - Gotta Get Back My Baby (00:02:57)
05 - Don't Make Me Wait (00:03:35)
06 - Just One Lifetime (00:03:31)
07 - 22nd Street (00:04:00)
08 - Dreaming In The U.S.A. (00:03:08)
09 - Crooked Tree (00:03:37)
10 - To Love And Be Loved (00:03:29)
11 - Sad Trombone (00:05:44)
12 - Night Shift (00:03:26)

Лог создания рипа

Exact Audio Copy V1.3 from 2. September 2016
EAC extraction logfile from 7. July 2019, 18:27
Sting & Shaggy / 44-876
Used drive : PLEXTOR PX-891SAF PLUS Adapter: 1 ID: 0
Read mode : Secure
Utilize accurate stream : Yes
Defeat audio cache : Yes
Make use of C2 pointers : No
Read offset correction : 6
Overread into Lead-In and Lead-Out : No
Fill up missing offset samples with silence : Yes
Delete leading and trailing silent blocks : No
Null samples used in CRC calculations : Yes
Used interface : Native Win32 interface for Win NT & 2000
Gap handling : Appended to previous track
Used output format : User Defined Encoder
Selected bitrate : 1024 kBit/s
Quality : High
Add ID3 tag : No
Command line compressor : C:\Program Files (x86)\Exact Audio Copy\Flac\flac.exe
Additional command line options : -0 -V -T "ARTIST=%artist%" -T "TITLE=%title%" -T "ALBUM=%albumtitle%" -T "DATE=%year%" -T "TRACKNUMBER=%tracknr%" -T "TOTALTRACKS=%numtracks%" -T "GENRE=%genre%" -T "COMMENT=Naftamusic Release!" %source%
TOC of the extracted CD
Track | Start | Length | Start sector | End sector
---------------------------------------------------------
1 | 0:00.00 | 2:59.73 | 0 | 13497
2 | 2:59.73 | 3:11.24 | 13498 | 27846
3 | 6:11.22 | 3:18.51 | 27847 | 42747
4 | 9:29.73 | 2:56.50 | 42748 | 55997
5 | 12:26.48 | 3:35.04 | 55998 | 72126
6 | 16:01.52 | 3:30.63 | 72127 | 87939
7 | 19:32.40 | 4:00.07 | 87940 | 105946
8 | 23:32.47 | 3:08.24 | 105947 | 120070
9 | 26:40.71 | 3:37.07 | 120071 | 136352
10 | 30:18.03 | 3:29.37 | 136353 | 152064
11 | 33:47.40 | 5:43.54 | 152065 | 177843
12 | 39:31.19 | 3:26.27 | 177844 | 193320
Track 1
Filename E:\Nafta Releases\Sting & Shaggy - 44-876 (Super Deluxe Edition 2 CD 2018)[FLAC] - Naftamusic\CD 1\01 - 44-876 (feat. Morgan Heritage & Aidonia).wav
Pre-gap length 0:00:02.00
Peak level 98.8 %
Extraction speed 2.4 X
Track quality 100.0 %
Test CRC 59FF394F
Copy CRC 59FF394F
Accurately ripped (confidence 115) [47D64BB2] (AR v2)
Copy OK
Track 2
Filename E:\Nafta Releases\Sting & Shaggy - 44-876 (Super Deluxe Edition 2 CD 2018)[FLAC] - Naftamusic\CD 1\02 - Morning Is Coming.wav
Peak level 98.8 %
Extraction speed 2.7 X
Track quality 100.0 %
Test CRC 578FD765
Copy CRC 578FD765
Accurately ripped (confidence 115) [20613FC2] (AR v2)
Copy OK
Track 3
Filename E:\Nafta Releases\Sting & Shaggy - 44-876 (Super Deluxe Edition 2 CD 2018)[FLAC] - Naftamusic\CD 1\03 - Waiting For The Break of Day.wav
Peak level 98.8 %
Extraction speed 2.9 X
Track quality 100.0 %
Test CRC 784AC528
Copy CRC 784AC528
Accurately ripped (confidence 114) [06B924E2] (AR v2)
Copy OK
Track 4
Filename E:\Nafta Releases\Sting & Shaggy - 44-876 (Super Deluxe Edition 2 CD 2018)[FLAC] - Naftamusic\CD 1\04 - Gotta Get Back My Baby.wav
Peak level 98.8 %
Extraction speed 3.1 X
Track quality 100.0 %
Test CRC 850B34DF
Copy CRC 850B34DF
Accurately ripped (confidence 114) [B37FD6D9] (AR v2)
Copy OK
Track 5
Filename E:\Nafta Releases\Sting & Shaggy - 44-876 (Super Deluxe Edition 2 CD 2018)[FLAC] - Naftamusic\CD 1\05 - Don't Make Me Wait.wav
Peak level 98.8 %
Extraction speed 3.4 X
Track quality 100.0 %
Test CRC 472FB8C1
Copy CRC 472FB8C1
Accurately ripped (confidence 115) [74D358BE] (AR v2)
Copy OK
Track 6
Filename E:\Nafta Releases\Sting & Shaggy - 44-876 (Super Deluxe Edition 2 CD 2018)[FLAC] - Naftamusic\CD 1\06 - Just One Lifetime.wav
Peak level 98.8 %
Extraction speed 2.8 X
Track quality 99.9 %
Test CRC 863C31C8
Copy CRC 863C31C8
Accurately ripped (confidence 115) [25431912] (AR v2)
Copy OK
Track 7
Filename E:\Nafta Releases\Sting & Shaggy - 44-876 (Super Deluxe Edition 2 CD 2018)[FLAC] - Naftamusic\CD 1\07 - 22nd Street.wav
Peak level 98.8 %
Extraction speed 3.8 X
Track quality 100.0 %
Test CRC D307E887
Copy CRC D307E887
Accurately ripped (confidence 115) [AD164627] (AR v2)
Copy OK
Track 8
Filename E:\Nafta Releases\Sting & Shaggy - 44-876 (Super Deluxe Edition 2 CD 2018)[FLAC] - Naftamusic\CD 1\08 - Dreaming In The U.S.A..wav
Peak level 100.0 %
Extraction speed 3.8 X
Track quality 100.0 %
Test CRC E4CA11B3
Copy CRC E4CA11B3
Accurately ripped (confidence 115) [F1734819] (AR v2)
Copy OK
Track 9
Filename E:\Nafta Releases\Sting & Shaggy - 44-876 (Super Deluxe Edition 2 CD 2018)[FLAC] - Naftamusic\CD 1\09 - Crooked Tree.wav
Peak level 100.0 %
Extraction speed 3.2 X
Track quality 99.9 %
Test CRC AD60E0CC
Copy CRC AD60E0CC
Accurately ripped (confidence 116) [F99E534E] (AR v2)
Copy OK
Track 10
Filename E:\Nafta Releases\Sting & Shaggy - 44-876 (Super Deluxe Edition 2 CD 2018)[FLAC] - Naftamusic\CD 1\10 - To Love And Be Loved.wav
Peak level 98.8 %
Extraction speed 3.2 X
Track quality 99.9 %
Test CRC 09BA51D3
Copy CRC 09BA51D3
Accurately ripped (confidence 115) [E23AA6E9] (AR v2)
Copy OK
Track 11
Filename E:\Nafta Releases\Sting & Shaggy - 44-876 (Super Deluxe Edition 2 CD 2018)[FLAC] - Naftamusic\CD 1\11 - Sad Trombone.wav
Peak level 98.8 %
Extraction speed 4.7 X
Track quality 100.0 %
Test CRC 0004EEB5
Copy CRC 0004EEB5
Accurately ripped (confidence 114) [E28FF62B] (AR v2)
Copy OK
Track 12
Filename E:\Nafta Releases\Sting & Shaggy - 44-876 (Super Deluxe Edition 2 CD 2018)[FLAC] - Naftamusic\CD 1\12 - Night Shift.wav
Peak level 100.0 %
Extraction speed 4.6 X
Track quality 100.0 %
Test CRC 327EC456
Copy CRC 327EC456
Accurately ripped (confidence 113) [6AD9464E] (AR v2)
Copy OK
All tracks accurately ripped
No errors occurred
End of status report
==== Log checksum FDDEBFC339E620EA76911B6513F2B7C18590AECE7767404DD22D0CDD1DCE2C27 ====

Содержание индексной карты (.CUE)

REM GENRE Reggae
REM DATE 2018
REM DISCID 920A110C
REM COMMENT "ExactAudioCopy v1.3"
PERFORMER "Sting & Shaggy"
TITLE "44-876"
REM COMPOSER ""
FILE "01 - 44-876 (feat. Morgan Heritage & Aidonia).wav" WAVE
TRACK 01 AUDIO
TITLE "44-876 (feat. Morgan Heritage & Aidonia)"
PERFORMER "Sting & Shaggy"
REM COMPOSER ""
INDEX 01 00:00:00
FILE "02 - Morning Is Coming.wav" WAVE
TRACK 02 AUDIO
TITLE "Morning Is Coming"
PERFORMER "Sting & Shaggy"
REM COMPOSER ""
INDEX 01 00:00:00
FILE "03 - Waiting For The Break of Day.wav" WAVE
TRACK 03 AUDIO
TITLE "Waiting For The Break of Day"
PERFORMER "Sting & Shaggy"
REM COMPOSER ""
INDEX 01 00:00:00
FILE "04 - Gotta Get Back My Baby.wav" WAVE
TRACK 04 AUDIO
TITLE "Gotta Get Back My Baby"
PERFORMER "Sting & Shaggy"
REM COMPOSER ""
INDEX 01 00:00:00
FILE "05 - Don't Make Me Wait.wav" WAVE
TRACK 05 AUDIO
TITLE "Don't Make Me Wait"
PERFORMER "Sting & Shaggy"
REM COMPOSER ""
INDEX 01 00:00:00
FILE "06 - Just One Lifetime.wav" WAVE
TRACK 06 AUDIO
TITLE "Just One Lifetime"
PERFORMER "Sting & Shaggy"
REM COMPOSER ""
INDEX 01 00:00:00
FILE "07 - 22nd Street.wav" WAVE
TRACK 07 AUDIO
TITLE "22nd Street"
PERFORMER "Sting & Shaggy"
REM COMPOSER ""
INDEX 01 00:00:00
FILE "08 - Dreaming In The U.S.A..wav" WAVE
TRACK 08 AUDIO
TITLE "Dreaming In The U.S.A."
PERFORMER "Sting & Shaggy"
REM COMPOSER ""
INDEX 01 00:00:00
FILE "09 - Crooked Tree.wav" WAVE
TRACK 09 AUDIO
TITLE "Crooked Tree"
PERFORMER "Sting & Shaggy"
REM COMPOSER ""
INDEX 01 00:00:00
FILE "10 - To Love And Be Loved.wav" WAVE
TRACK 10 AUDIO
TITLE "To Love And Be Loved"
PERFORMER "Sting & Shaggy"
REM COMPOSER ""
INDEX 01 00:00:00
FILE "11 - Sad Trombone.wav" WAVE
TRACK 11 AUDIO
TITLE "Sad Trombone"
PERFORMER "Sting & Shaggy"
REM COMPOSER ""
INDEX 01 00:00:00
FILE "12 - Night Shift.wav" WAVE
TRACK 12 AUDIO
TITLE "Night Shift"
PERFORMER "Sting & Shaggy"
REM COMPOSER ""
INDEX 01 00:00:00

CD 2 - 00:53:38

ТRACKLIST:
01 - Englishman In New York (Live At Shaggy & Friends, Kigston, Jamaica) (00:04:50)
02 - Fields Of Gold (Live At Shaggy & Friends, Kigston, Jamaica) (00:03:39)
03 - Message In A Bottle (Live At Shaggy & Friends, Kigston, Jamaica) (00:06:35)
04 - Don't Make Me Wait (Live At Shaggy & Friends, Kigston, Jamaica) (00:04:37)
05 - Roxanne (Live At Shaggy & Friends, Kigston, Jamaica) (00:06:09)
06 - Cherrytree Radio Interview (00:27:49)

Лог создания рипа

Exact Audio Copy V1.3 from 2. September 2016
EAC extraction logfile from 7. July 2019, 19:34
Sting & Shaggy / 44/876
Used drive : PLEXTOR PX-891SAF PLUS Adapter: 1 ID: 0
Read mode : Secure
Utilize accurate stream : Yes
Defeat audio cache : Yes
Make use of C2 pointers : No
Read offset correction : 6
Overread into Lead-In and Lead-Out : No
Fill up missing offset samples with silence : Yes
Delete leading and trailing silent blocks : No
Null samples used in CRC calculations : Yes
Used interface : Native Win32 interface for Win NT & 2000
Gap handling : Appended to previous track
Used output format : User Defined Encoder
Selected bitrate : 1024 kBit/s
Quality : High
Add ID3 tag : No
Command line compressor : C:\Program Files (x86)\Exact Audio Copy\Flac\flac.exe
Additional command line options : -0 -V -T "ARTIST=%artist%" -T "TITLE=%title%" -T "ALBUM=%albumtitle%" -T "DATE=%year%" -T "TRACKNUMBER=%tracknr%" -T "TOTALTRACKS=%numtracks%" -T "GENRE=%genre%" -T "COMMENT=Naftamusic Release!" %source%
TOC of the extracted CD
Track | Start | Length | Start sector | End sector
---------------------------------------------------------
1 | 0:00.00 | 4:49.38 | 0 | 21712
2 | 4:49.38 | 3:39.01 | 21713 | 38138
3 | 8:28.39 | 6:34.53 | 38139 | 67741
4 | 15:03.17 | 4:37.25 | 67742 | 88541
5 | 19:40.42 | 6:08.40 | 88542 | 116181
6 | 25:49.07 | 27:48.48 | 116182 | 241329
Track 1
Filename E:\Nafta Releases\Sting & Shaggy - 44-876 (Super Deluxe Edition 2 CD 2018)[FLAC] - Naftamusic\CD 2\01 - Englishman In New York (Live At Shaggy & Friends, Kigston, Jamaica).wav
Pre-gap length 0:00:02.00
Peak level 100.0 %
Extraction speed 2.2 X
Track quality 99.9 %
Test CRC C6B92284
Copy CRC C6B92284
Accurately ripped (confidence 3) [F3F9B8D3] (AR v2)
Copy OK
Track 2
Filename E:\Nafta Releases\Sting & Shaggy - 44-876 (Super Deluxe Edition 2 CD 2018)[FLAC] - Naftamusic\CD 2\02 - Fields Of Gold (Live At Shaggy & Friends, Kigston, Jamaica).wav
Peak level 100.0 %
Extraction speed 2.9 X
Track quality 100.0 %
Test CRC 17EA33B9
Copy CRC 17EA33B9
Accurately ripped (confidence 3) [B0313581] (AR v2)
Copy OK
Track 3
Filename E:\Nafta Releases\Sting & Shaggy - 44-876 (Super Deluxe Edition 2 CD 2018)[FLAC] - Naftamusic\CD 2\03 - Message In A Bottle (Live At Shaggy & Friends, Kigston, Jamaica).wav
Peak level 100.0 %
Extraction speed 3.0 X
Track quality 99.9 %
Test CRC 454F43CE
Copy CRC 454F43CE
Accurately ripped (confidence 3) [E418F920] (AR v2)
Copy OK
Track 4
Filename E:\Nafta Releases\Sting & Shaggy - 44-876 (Super Deluxe Edition 2 CD 2018)[FLAC] - Naftamusic\CD 2\04 - Don't Make Me Wait (Live At Shaggy & Friends, Kigston, Jamaica).wav
Peak level 100.0 %
Extraction speed 3.7 X
Track quality 100.0 %
Test CRC D96CB7E8
Copy CRC D96CB7E8
Accurately ripped (confidence 3) [0FEE1799] (AR v2)
Copy OK
Track 5
Filename E:\Nafta Releases\Sting & Shaggy - 44-876 (Super Deluxe Edition 2 CD 2018)[FLAC] - Naftamusic\CD 2\05 - Roxanne (Live At Shaggy & Friends, Kigston, Jamaica).wav
Peak level 100.0 %
Extraction speed 3.4 X
Track quality 99.9 %
Test CRC 7C64D0AA
Copy CRC 7C64D0AA
Accurately ripped (confidence 3) [6543AEA8] (AR v2)
Copy OK
Track 6
Filename E:\Nafta Releases\Sting & Shaggy - 44-876 (Super Deluxe Edition 2 CD 2018)[FLAC] - Naftamusic\CD 2\06 - Cherrytree Radio Interview.wav
Peak level 99.9 %
Extraction speed 5.0 X
Track quality 99.9 %
Test CRC 02495AAA
Copy CRC 02495AAA
Accurately ripped (confidence 3) [A1827C3E] (AR v2)
Copy OK
All tracks accurately ripped
No errors occurred
End of status report
==== Log checksum 772853D9959D802B0E4527CA67085DCCDD57F6819934D75B535ED6ABC1C41330 ====

Содержание индексной карты (.CUE)

REM GENRE Pop
REM DATE 2018
REM DISCID 3A0C9106
REM COMMENT "ExactAudioCopy v1.3"
PERFORMER "Sting & Shaggy"
TITLE "44/876"
REM COMPOSER ""
FILE "01 - Englishman In New York (Live At Shaggy & Friends, Kigston, Jamaica).wav" WAVE
TRACK 01 AUDIO
TITLE "Englishman In New York (Live At Shaggy & Friends, Kigston, Jamaica)"
PERFORMER "Sting & Shaggy"
REM COMPOSER ""
INDEX 01 00:00:00
FILE "02 - Fields Of Gold (Live At Shaggy & Friends, Kigston, Jamaica).wav" WAVE
TRACK 02 AUDIO
TITLE "Fields Of Gold (Live At Shaggy & Friends, Kigston, Jamaica)"
PERFORMER "Sting & Shaggy"
REM COMPOSER ""
INDEX 01 00:00:00
FILE "03 - Message In A Bottle (Live At Shaggy & Friends, Kigston, Jamaica).wav" WAVE
TRACK 03 AUDIO
TITLE "Message In A Bottle (Live At Shaggy & Friends, Kigston, Jamaica)"
PERFORMER "Sting & Shaggy"
REM COMPOSER ""
INDEX 01 00:00:00
FILE "04 - Don't Make Me Wait (Live At Shaggy & Friends, Kigston, Jamaica).wav" WAVE
TRACK 04 AUDIO
TITLE "Don't Make Me Wait (Live At Shaggy & Friends, Kigston, Jamaica)"
PERFORMER "Sting & Shaggy"
REM COMPOSER ""
INDEX 01 00:00:00
FILE "05 - Roxanne (Live At Shaggy & Friends, Kigston, Jamaica).wav" WAVE
TRACK 05 AUDIO
TITLE "Roxanne (Live At Shaggy & Friends, Kigston, Jamaica)"
PERFORMER "Sting & Shaggy"
REM COMPOSER ""
INDEX 01 00:00:00
FILE "06 - Cherrytree Radio Interview.wav" WAVE
TRACK 06 AUDIO
TITLE "Cherrytree Radio Interview"
PERFORMER "Sting & Shaggy"
REM COMPOSER ""
INDEX 01 00:00:00

Об исполнителе (группе)

Sting: vocals, bass, keyboards;
Shaggy: vocals;
Dominic Miller: guitars;
Sting International: bass, drums, production;
Martin Kierszenbaum: percussion, keyboards, piano, production;
Dwayne "iLL Wayno" Shippy: keyboards, arrangements;
Steven "Lenky" Marsden: keyboards;
Clark Gayton: trombon;
Geoffrey Keezer: piano;
Robert “Robbie” Shakespeare: bass;
Maggie Buckley: saxophone, flute

Об альбоме (сборнике)

Sting és Shaggy közös albuma, amelyet a két énekes szülőhelye, az Egyesült Királyság és Jamaika szigete inspirált: a lemez címe is a két ország körzetszámából áll össze.
A két Grammy-díjas előadó első közös dala, a Don’t Make Me Wait karibi hangulatot idéz: ez a zenei irányzat mindkettejük életét jelentősen befolyásolta. A közös munka eredetileg csak erre a dalra szólt volna, de végül egy egész album felvételéhez vezetett, amely tele van vidámsággal és felemelő dalokkal – ez a 44/876.
[torrents24.ru].t88505.torrent 
Торрент: Зарегистрирован [ 2019-07-10 15:35 ] · 239DB7462B634F12F7BBF5E2084E4FF574BEC1A8

Скачать .torrent

Скачать

16 KB

Статус: проверено
Скачан: 0 раз
Размер: 634 MB
terms.php
[Профиль] [ЛС]
Показать сообщения:    
Ответить на тему

Текущее время: 22-Июл 19:42

Часовой пояс: UTC + 3



Вы не можете начинать темы
Вы не можете отвечать на сообщения
Вы не можете редактировать свои сообщения
Вы не можете удалять свои сообщения
Вы не можете голосовать в опросах
Вы не можете прикреплять файлы к сообщениям
Вы можете скачивать файлы

Интересное в сети