Геркулес / Hercules / Сезон: 1 / Серии: 27, 29, 31, 40 из 55 (Фил Вайнштейн / Phil Weinstein) [1998, США, Анимация, VHSRip] AVO

Ответить на тему
Статистика раздачи
Размер:  2,99 GB   |    Зарегистрирован:  13 дней   |    Скачан:  0 раз

Полного источника не было: Никогда

 
   
 
 
Автор Сообщение

Angel ®

Пол: Не указан

Стаж: 1 год 5 месяцев

Сообщений: 91

Создавать темы 09-Июл-2019 16:39

[Цитировать]

Геркулес / Hercules
Страна: США
Жанр: Анимация
Продолжительность серии: 00:22:00
Год выпуска: 1998
Перевод: Авторский (одноголосый закадровый) Сергей Визгунов
Русские субтитры: нет
Режиссёр: Фил Вайнштейн / Phil Weinstein
Роли озвучивали: Тейт Донован / Tate Donovan (Геркулес), Скотт Уэйнджер / Scott Weinger (Аладдин), Джеймс Вудс / James Woods (Аид), Джонатан Фриман / Jonathan Freeman (Джафар), Линда Ларкин / Linda Larkin (Принцесса Жасмин), Роберт Костанцо / Robert Costanzo (Филоктет), Френч Стюарт / French Stewart (Икар), Фрэнк Уэлкер / Frank Welker (Абу), Бобкэт Голдтуэйт / Bobcat Goldthwait (Боль), Мэтт Фрюэр / Matt Frewer (Паник).
Описание: Повелитель подземного царства, коварный бог Аид (Гадес) вновь придумывает зловещий план, который поможет ему победить несносного Геркулеса. Он находит в преисподней душу погибшего злобного колдуна, бывшего королевского визиря города Аграбы, Джафара. В небытие его отправил «уличный крысёныш» Аладдин, и теперь всё, о чём мечтает колдун — вернуться в мир живых, вернуть былое могущество и отомстить Аладдину.
Аид считает, что пришло время воплотить и его мечты: злодеи будут манипулировать героями Греции и Востока и натравят их друг на друга, наблюдая за их противостоянием не на жизнь, а на смерть. В случае удачного исхода Аид обещает вернуть Джафара к жизни.
Список серий:
Эпизод 29
Геркулес и невезение в любви
Hercules and the Jilt Trip
Эпизод 27
Геркулес и девушка мечты
Hercules and the Dream Date
Эпизод 31
Геркулес и горы злата
Hercules and the Golden Touch
Эпизод 40
Геркулес и школьный бал
Hercules and the Prom
Доп. информация: Оцифровка VHS (личный архив) и получение VHSRip alenavova
Эксклюзив для rutracker.org. При размещении данного релиза на других сайтах ссылка на автора alenavova обязательна.
Релиз
Семпл: https://yadi.sk/d/-7gODG-3gwpjwA
Качество: VHSRip
Формат: MP4
Видео: MPEG2 Video 720x576 (4:3) 25fps Bit rate 4 380 kb/s
Аудио: MPEG Audio 48000Hz 256kbps
Субтитры: отсутствуют

Подробные технические данные

Геркулес (мультсериал, Визгунов) [by alenavova]\Hercules and the Golden Touch.mpg
Format : MPEG-PS
File size : 769 MiB
Duration : 22 min 51 s
Overall bit rate mode : Variable
Overall bit rate : 4 708 kb/s
Video
ID : 224 (0xE0)
Format : MPEG Video
Format version : Version 2
Format profile : Main@Main
Format settings : CustomMatrix / BVOP
Format settings, BVOP : Yes
Format settings, Matrix : Custom
Format settings, GOP : M=3, N=12
Format settings, picture st : Frame
Duration : 22 min 51 s
Bit rate mode : Variable
Bit rate : 4 380 kb/s
Width : 720 pixels
Height : 576 pixels
Display aspect ratio : 4:3
Frame rate : 25.000 FPS
Standard : PAL
Color space : YUV
Chroma subsampling : 4:2:0
Bit depth : 8 bits
Scan type : Interlaced
Scan order : Top Field First
Compression mode : Lossy
Bits/(Pixel*Frame) : 0.422
Time code of first frame : 00:00:00:00
Time code source : Group of pictures header
GOP, Open/Closed : Open
GOP, Open/Closed of first f : Closed
Stream size : 712 MiB (93%)
Audio
ID : 192 (0xC0)
Format : MPEG Audio
Format version : Version 1
Format profile : Layer 2
Duration : 22 min 51 s
Bit rate mode : Constant
Bit rate : 256 kb/s
Channel(s) : 2 channels
Sampling rate : 48.0 kHz
Frame rate : 41.667 FPS (1152 SPF)
Compression mode : Lossy
Stream size : 41.8 MiB (5%)

Скриншоты


Предыдущие и альтернативные раздачи
[torrents24.ru].t88437.torrent 
Торрент: Зарегистрирован [ 2019-07-09 16:40 ] · 6711F02AC68685DB329FEDE37F005662F4BF630A

Скачать .torrent

Скачать

16 KB

Статус: проверено
Скачан: 0 раз
Размер: 2,99 GB
terms.php
[Профиль] [ЛС]
Показать сообщения:    
Ответить на тему

Текущее время: 22-Июл 18:56

Часовой пояс: UTC + 3



Вы не можете начинать темы
Вы не можете отвечать на сообщения
Вы не можете редактировать свои сообщения
Вы не можете удалять свои сообщения
Вы не можете голосовать в опросах
Вы не можете прикреплять файлы к сообщениям
Вы можете скачивать файлы

Интересное в сети