(Ethereal, Blues Rock, Avantgarde) [CD] Penta Leslee Swanson - Sorrow And Solitude - 1994, FLAC (image+.cue), lossless

Ответить на тему
Статистика раздачи
Размер:  270 MB   |    Зарегистрирован:  14 дней   |    Скачан:  0 раз

Полного источника не было: Никогда

 
   
 
 
Автор Сообщение

тошик ®

Пол: Не указан

Стаж: 1 год 4 месяца

Сообщений: 97

Создавать темы 08-Июл-2019 15:39

[Цитировать]

Penta Leslee Swanson / Sorrow And Solitude
Жанр: Ethereal, Blues Rock, Avantgarde
Носитель: CD
Страна-производитель диска (релиза): Germany
Год издания: 1994
Издатель (лейбл): Erdenklang
Номер по каталогу: 40732
Аудиокодек: FLAC (*.flac)
Тип рипа: image+.cue
Продолжительность: 00:54:34
Источник: собственный рип
Наличие сканов в содержимом раздачи: нет
Треклист:
1. There Was Thunder There Was Rain 5:00
2. Nothing 5:21
3. Swan Song 4:21
4. Ramblind Man 7:45
5. I'd Rather Go Blind 4:56
6. C.C. Rider 5:11
7. I Wanna Breakdown 5:50
8. Homeless Blues 5:35
9. A-Wanderin' 3:41
10. Be My Man 6:46

Лог создания рипа

Exact Audio Copy V1.1 from 23. June 2015
EAC extraction logfile from 16. April 2019, 20:34
Penta Leslee Swanson / Sorrow and Solitude
Used drive : PIONEER BD-RW BDR-208M Adapter: 1 ID: 0
Read mode : Secure
Utilize accurate stream : Yes
Defeat audio cache : Yes
Make use of C2 pointers : No
Read offset correction : 667
Overread into Lead-In and Lead-Out : No
Fill up missing offset samples with silence : Yes
Delete leading and trailing silent blocks : No
Null samples used in CRC calculations : Yes
Used interface : Native Win32 interface for Win NT & 2000
Used output format : User Defined Encoder
Selected bitrate : 1024 kBit/s
Quality : High
Add ID3 tag : No
Command line compressor : C:\Program Files (x86)\Exact Audio Copy\Flac\flac.exe
Additional command line options : -V -8 -T "Date=%year%" -T "Genre=%genre%" %source%
TOC of the extracted CD
Track | Start | Length | Start sector | End sector
---------------------------------------------------------
1 | 0:00.00 | 5:03.32 | 0 | 22756
2 | 5:03.32 | 5:22.10 | 22757 | 46916
3 | 10:25.42 | 4:21.35 | 46917 | 66526
4 | 14:47.02 | 7:45.00 | 66527 | 101401
5 | 22:32.02 | 4:56.25 | 101402 | 123626
6 | 27:28.27 | 5:11.70 | 123627 | 147021
7 | 32:40.22 | 5:50.43 | 147022 | 173314
8 | 38:30.65 | 5:39.70 | 173315 | 198809
9 | 44:10.60 | 3:41.10 | 198810 | 215394
10 | 47:51.70 | 6:41.60 | 215395 | 245529
Range status and errors
Selected range
Filename C:\Users\jean-mini\Music\Penta Leslee Swanson - Sorrow and Solitude.wav
Peak level 98.6 %
Extraction speed 6.8 X
Range quality 99.9 %
Test CRC 6BEC69DD
Copy CRC 6BEC69DD
Copy OK
No errors occurred
AccurateRip summary
Track 1 accurately ripped (confidence 3) [55178144] (AR v2)
Track 2 accurately ripped (confidence 3) [43506A7E] (AR v2)
Track 3 accurately ripped (confidence 3) [695524D1] (AR v2)
Track 4 accurately ripped (confidence 2) [EF42FCA7] (AR v2)
Track 5 accurately ripped (confidence 3) [B3574957] (AR v2)
Track 6 accurately ripped (confidence 2) [E04A7665] (AR v2)
Track 7 accurately ripped (confidence 2) [C9042DEB] (AR v2)
Track 8 accurately ripped (confidence 2) [B2D3F28B] (AR v2)
Track 9 accurately ripped (confidence 2) [83EDB379] (AR v2)
Track 10 accurately ripped (confidence 2) [212D0D78] (AR v2)
All tracks accurately ripped
End of status report
---- CUETools DB Plugin V2.1.6
[CTDB TOCID: q0PTyxqSwTAgr3z7z9jKhLJcDCw-] found
Submit result: q0PTyxqSwTAgr3z7z9jKhLJcDCw- has been confirmed
Track | CTDB Status
1 | (6/6) Accurately ripped
2 | (6/6) Accurately ripped
3 | (6/6) Accurately ripped
4 | (6/6) Accurately ripped
5 | (6/6) Accurately ripped
6 | (6/6) Accurately ripped
7 | (6/6) Accurately ripped
8 | (4/6) Accurately ripped
9 | (4/6) Accurately ripped
10 | (6/6) Accurately ripped
==== Log checksum 13BFB7D6CC888CA970148C8CB1B4757F68399B686AC5E36139EA97CC0A4A7465 ====
Доп. информация:
[torrents24.ru].t88354.torrent 
Торрент: Зарегистрирован [ 2019-07-08 15:40 ] · 4888C80AABBD270398FFFDC75B473292F884A0A2

Скачать .torrent

Скачать

11 KB

Статус: проверено
Скачан: 0 раз
Размер: 270 MB
terms.php
[Профиль] [ЛС]
Показать сообщения:    
Ответить на тему

Текущее время: 22-Июл 19:58

Часовой пояс: UTC + 3



Вы не можете начинать темы
Вы не можете отвечать на сообщения
Вы не можете редактировать свои сообщения
Вы не можете удалять свои сообщения
Вы не можете голосовать в опросах
Вы не можете прикреплять файлы к сообщениям
Вы можете скачивать файлы

Интересное в сети