Земля до начала времен 2: Приключения в Великой Долине / The Land Before Time II: The Great Valley Adventure (Рой Аллен Смит / Roy Allen Smith) [1994, США, мультфильм, WEB-DLRip] AVO (Сергей Визгунов) + AVO (Михаил Иванов) + AVO (Максим Ошурков)

Ответить на тему
Статистика раздачи
Размер:  1,46 GB   |    Зарегистрирован:  16 дней   |    Скачан:  0 раз

Полного источника не было: Никогда

 
   
 
 
Автор Сообщение

Акробат ®

Пол: Не указан

Стаж: 1 год 5 месяцев

Сообщений: 121

Создавать темы 06-Июл-2019 15:44

[Цитировать]

Земля до начала времен 2: Приключения в Великой Долине / The Land Before Time II: The Great Valley Adventure
Страна: США
Жанр: мультфильм, приключения, семейный
Год выпуска: 1994
Продолжительность: 01:13:49

Перевод: Авторский (одноголосый закадровый) Сергей Визгунов
Перевод 2: Авторский (одноголосый закадровый) Михаил Иванов
Перевод 3: Авторский (одноголосый закадровый) Максим Ошурков
Субтитры: нет
Режиссёр: Рой Аллен Смит / Roy Allen Smith
Роли озвучивали: Скотт МакЭфи, Кендес Хатсон, Хезер Хоган, Джефф Беннетт, Роб Полсен, Линда Гэри, Кеннет Марс, Джон Ингл, Тресс МакНилл
Описание: Мультфильм продолжает рассказывать о жизни и приключениях маленького динозаврика Крошки-Ножки в Великий Долине. На новом месте обитания компания приятелей-динозавриков Крошки-ножки, Спайк, Даки, Питри и Сэра ведут себя как обычные маленькие дети: балуются, хулиганят и не всегда слушаются взрослых. Их поход в запрещенные родными Зыбучие пески чуть не заканчивается их гибелью, но малыши-динозаврики хотят быстрее стать взрослыми и самостоятельными избавиться от опеки родных. Как и в жизни людей, не все травоядные динозавры ведут себя мирно. Динозавр Оззи и его приятель не хотят есть траву и переходят на питание яйцами. Хулиган Оззи крадет яйца из гнезд и травоядных, и плотоядных динозавров. Крошки-Ножки и его друзья забирают одно такое яйцо у яичных воров, и хотят вернуть его на место. Но из яйца вылупливается не травоядный динозаврик, а самый настоящий острозуб, только очень маленький. Крошки-Ножки с приятелями очень обрадовались этому событию и решают усыновить малютку. Они дают ему имя Зубастик и хотят научить есть траву...

Семпл: http://multi-up.com/1236101
Качество: WEB-DLRip (Исходник WEB-DL 1080p)
Формат: AVI
Видео: XviD 73, 704x,528 (4:3), 23.976 fps, 2246 Кбит/с, 8 бит, 0.25 bit/pixel
Аудио: Русский (АС3, 1 ch (Front: С), 48,0 KHz, 192 Kbps) Сергей Визгунов
Аудио 2: Русский (АС3, 2 ch (Front: L R), 48,0 KHz, 192 Kbps) Михаил Иванов
Аудио 3: Русский (АС3, 2 ch (Front: L R), 48,0 KHz, 192 Kbps) Максим Ошурков

MediaInfo

Общее
Полное имя : D:\Фильмы на трекер\Земля до начала времен 2 (мультфильм, приключения 1994 год).avi
Формат : AVI
Формат/Информация : Audio Video Interleave
Размер файла : 1,46 Гбайт
Продолжительность : 1 ч. 13 м.
Общий поток : 2841 Кбит/сек
Программа кодирования : VirtualDubMod 1.5.10.3 | www.virtualdub-fr.org || (build 2550/release)
Библиотека кодирования : VirtualDubMod build 2550/release
Видео
Идентификатор : 0
Формат : MPEG-4 Visual
Профиль формата : Advanced Simple@L5
Параметр BVOP формата : 2
Параметр QPel формата : Нет
Параметр GMC формата : Без точки перехода
Параметр матрицы формата : Выборочная
Идентификатор кодека : XVID
Идентификатор кодека/Подсказка : XviD
Продолжительность : 1 ч. 13 м.
Битрейт : 2246 Кбит/сек
Ширина : 704 пикселя
Высота : 528 пикселей
Соотношение сторон : 4:3
Частота кадров : 23,976 (23976/1000) кадра/сек
Цветовое пространство : YUV
Субдискретизация насыщенности : 4:2:0
Битовая глубина : 8 бит
Тип развёртки : Прогрессивная
Метод сжатия : С потерями
Бит/(Пиксели*Кадры) : 0.252
Размер потока : 1,16 Гбайт (79%)
Библиотека кодирования : XviD 73
Аудио #1
Идентификатор : 1
Формат : AC-3
Формат/Информация : Audio Coding 3
Расширение режима : CM (complete main)
Параметр Endianness формата : Big
Идентификатор кодека : 2000
Продолжительность : 1 ч. 13 м.
Вид битрейта : Постоянный
Битрейт : 192 Кбит/сек
Каналы : 1 канал
Расположение каналов : Front: C
Частота : 48,0 КГц
Частота кадров : 31,250 кадров/сек (1536 spf)
Метод сжатия : С потерями
Размер потока : 101 Мбайт (7%)
Выравнивание : Разделение по промежуткам
Продолжительность промежутка : 42 мс. (1,00 видеокадр)
Время предзагрузки промежутка : 500 мс.
Аудио #2
Идентификатор : 2
Формат : AC-3
Формат/Информация : Audio Coding 3
Расширение режима : CM (complete main)
Параметр Endianness формата : Big
Идентификатор кодека : 2000
Продолжительность : 1 ч. 13 м.
Вид битрейта : Постоянный
Битрейт : 192 Кбит/сек
Каналы : 2 канала
Расположение каналов : Front: L R
Частота : 48,0 КГц
Частота кадров : 31,250 кадров/сек (1536 spf)
Метод сжатия : С потерями
Размер потока : 101 Мбайт (7%)
Выравнивание : Разделение по промежуткам
Продолжительность промежутка : 42 мс. (1,00 видеокадр)
Время предзагрузки промежутка : 500 мс.
Аудио #3
Идентификатор : 3
Формат : AC-3
Формат/Информация : Audio Coding 3
Расширение режима : CM (complete main)
Параметр Endianness формата : Big
Идентификатор кодека : 2000
Продолжительность : 1 ч. 13 м.
Вид битрейта : Постоянный
Битрейт : 192 Кбит/сек
Каналы : 2 канала
Расположение каналов : Front: L R
Частота : 48,0 КГц
Частота кадров : 31,250 кадров/сек (1536 spf)
Метод сжатия : С потерями
Размер потока : 101 Мбайт (7%)
Выравнивание : Разделение по промежуткам
Продолжительность промежутка : 42 мс. (1,00 видеокадр)
Время предзагрузки промежутка : 500 мс.

Скриншот c названием фильма

Скриншоты

[torrents24.ru].t88235.torrent 
Торрент: Зарегистрирован [ 2019-07-06 15:45 ] · 78368DF54C53C3DAB426D378F628C606822C4B8F

Скачать .torrent

Скачать

15 KB

Статус: проверено
Скачан: 0 раз
Размер: 1,46 GB
terms.php
[Профиль] [ЛС]
Показать сообщения:    
Ответить на тему

Текущее время: 22-Июл 18:57

Часовой пояс: UTC + 3



Вы не можете начинать темы
Вы не можете отвечать на сообщения
Вы не можете редактировать свои сообщения
Вы не можете удалять свои сообщения
Вы не можете голосовать в опросах
Вы не можете прикреплять файлы к сообщениям
Вы можете скачивать файлы

Интересное в сети