(Rock) [CD] Кино (Виктор Цой) - Группа крови (3 CD) (1988, Maschina Records, MKK881CD) - 2019, FLAC (tracks+.cue), lossless

Ответить на тему
Статистика раздачи
Размер:  850 MB   |    Зарегистрирован:  29 дней   |    Скачан:  2 раза

Полного источника не было: 13 дней

 
   
 
 
Автор Сообщение

mafil ®

Пол: Не указан

Стаж: 1 год 4 месяца

Сообщений: 124

Создавать темы 23-Июн-2019 16:09

[Цитировать]

Кино — Группа крови
Жанр: Rock
Носитель: CD
Страна-производитель диска (релиза): Russia
Год издания: 2019
Издатель (лейбл): Maschina Records
Номер по каталогу: MKK881CD
Страна исполнителя (группы): СССР
Аудиокодек: FLAC (*.flac)
Тип рипа: tracks+.cue
Источник: losslessclub.com
Наличие сканов в содержимом раздачи: нет

CD 1 - Альбом

Треклист:
1. Группа крови
2. Закрой за мной дверь, я ухожу
3. Война
4. Спокойная ночь
5. Мама, мы все тяжело больны
6. Бошетунмай
7. В наших глазах
8. Попробуй спеть вместе со мной
9. Прохожий
10. Дальше действовать будем мы
11. Легенда
Продолжительность: 00:48:00

CD 2 - Сингл и V Фестиваль Ленинградского рок-клуба

Треклист:
Мы ждем перемен
1. Мы ждем перемен (оригинальная версия)
2. Мы ждем перемен (авторская версия)
LIVE 1987: V Фестиваль Ленинградского рок-клуба
3. Вступление
4. Группа крови
5. Следи за собой
6. Война
7. Бошетунмай
8. В наших глазах
9. Мама, мы все тяжело больны
10. Легенда
11. Прохожий
Продолжительность: 00:42:14

CD 3 - Черновик

Треклист:
1. Группа крови
2. Закрой за мной дверь, я ухожу
3. В наших глазах
4. Бошетунмай
5. Мама, мы все тяжело больны
6. Спокойная ночь
7. Попробуй спеть вместе со мной
8. Прохожий
9. Дальше действовать будем мы
10. Война
11. Легенда
Продолжительность: 00:47:09

Лог создания рипа

CD 1

X Lossless Decoder version 20181019 (151.1)
XLD extraction logfile from 2019-06-21 19:08:39 +0300
Кино / Группа крови
Used drive : MATSHITA DVD-RAM UJ870QJ (revision 1.00)
Media type : Pressed CD
Ripper mode : XLD Secure Ripper
Disable audio cache : OK for the drive with a cache less than 1375KiB
Make use of C2 pointers : NO
Read offset correction : 102
Max retry count : 20
Gap status : Analyzed, Appended
TOC of the extracted CD
Track | Start | Length | Start sector | End sector
---------------------------------------------------------
1 | 00:00:00 | 04:48:17 | 0 | 21616
2 | 04:48:17 | 04:21:01 | 21617 | 41192
3 | 09:09:18 | 04:06:70 | 41193 | 59712
4 | 13:16:13 | 06:16:04 | 59713 | 87916
5 | 19:32:17 | 04:09:02 | 87917 | 106593
6 | 23:41:19 | 04:12:39 | 106594 | 125532
7 | 27:53:58 | 03:35:15 | 125533 | 141672
8 | 31:28:73 | 04:38:19 | 141673 | 162541
9 | 36:07:17 | 03:41:38 | 162542 | 179154
10 | 39:48:55 | 03:59:02 | 179155 | 197081
11 | 43:47:57 | 04:13:21 | 197082 | 216077
AccurateRip Summary
Disc not found in AccurateRip DB.
All Tracks
Album gain : -3.88 dB
Peak : 0.944305
Statistics
Read error : 0
Jitter error (maybe fixed) : 0
Retry sector count : 0
Damaged sector count : 0
Track 01
Filename : /Users/valeriytereschuk/Music/Rip/Группа крови 2019 Maschina Records/CD1/01 Кино - Группа Крови.flac
Pre-gap length : 00:02:00
Track gain : -4.07 dB
Peak : 0.943115
CRC32 hash (test run) : 3446582B
CRC32 hash : 3446582B
CRC32 hash (skip zero) : 7F7C442C
AccurateRip v1 signature : 5F4D4FAD
AccurateRip v2 signature : 579735C0
->Track not present in AccurateRip database.
Statistics
Read error : 0
Jitter error (maybe fixed) : 0
Retry sector count : 0
Damaged sector count : 0
Track 02
Filename : /Users/valeriytereschuk/Music/Rip/Группа крови 2019 Maschina Records/CD1/02 Кино - Закрой За Мной Дверь, Я Ухожу.flac
Pre-gap length : 00:03:48
Track gain : -3.59 dB
Peak : 0.941711
CRC32 hash (test run) : 55BF17A3
CRC32 hash : 55BF17A3
CRC32 hash (skip zero) : D981D26C
AccurateRip v1 signature : ED40D309
AccurateRip v2 signature : 4BDD6C54
->Track not present in AccurateRip database.
Statistics
Read error : 0
Jitter error (maybe fixed) : 0
Retry sector count : 0
Damaged sector count : 0
Track 03
Filename : /Users/valeriytereschuk/Music/Rip/Группа крови 2019 Maschina Records/CD1/03 Кино - Война.flac
Pre-gap length : 00:04:03
Track gain : -2.98 dB
Peak : 0.828217
CRC32 hash (test run) : 6E37E204
CRC32 hash : 6E37E204
CRC32 hash (skip zero) : 32AB987D
AccurateRip v1 signature : 2C423878
AccurateRip v2 signature : 65E01113
->Track not present in AccurateRip database.
Statistics
Read error : 0
Jitter error (maybe fixed) : 0
Retry sector count : 0
Damaged sector count : 0
Track 04
Filename : /Users/valeriytereschuk/Music/Rip/Группа крови 2019 Maschina Records/CD1/04 Кино - Спокойная Ночь.flac
Pre-gap length : 00:02:39
Track gain : -3.21 dB
Peak : 0.828430
CRC32 hash (test run) : 832265B7
CRC32 hash : 832265B7
CRC32 hash (skip zero) : B42A9724
AccurateRip v1 signature : 3A1C0A08
AccurateRip v2 signature : E92BD78A
->Track not present in AccurateRip database.
Statistics
Read error : 0
Jitter error (maybe fixed) : 0
Retry sector count : 0
Damaged sector count : 0
Track 05
Filename : /Users/valeriytereschuk/Music/Rip/Группа крови 2019 Maschina Records/CD1/05 Кино - Мама, Мы Все Тяжело Больны.flac
Pre-gap length : 00:03:17
Track gain : -3.82 dB
Peak : 0.942566
CRC32 hash (test run) : 5467A51C
CRC32 hash : 5467A51C
CRC32 hash (skip zero) : 8B5BB3AA
AccurateRip v1 signature : 90994D76
AccurateRip v2 signature : D45164C6
->Track not present in AccurateRip database.
Statistics
Read error : 0
Jitter error (maybe fixed) : 0
Retry sector count : 0
Damaged sector count : 0
Track 06
Filename : /Users/valeriytereschuk/Music/Rip/Группа крови 2019 Maschina Records/CD1/06 Кино - Бошетунмай.flac
Pre-gap length : 00:02:21
Track gain : -5.09 dB
Peak : 0.943756
CRC32 hash (test run) : 6E4D2EFE
CRC32 hash : 6E4D2EFE
CRC32 hash (skip zero) : 6730AFA4
AccurateRip v1 signature : 0A848DDC
AccurateRip v2 signature : 7F24B41B
->Track not present in AccurateRip database.
Statistics
Read error : 0
Jitter error (maybe fixed) : 0
Retry sector count : 0
Damaged sector count : 0
Track 07
Filename : /Users/valeriytereschuk/Music/Rip/Группа крови 2019 Maschina Records/CD1/07 Кино - В Наших Глазах.flac
Pre-gap length : 00:01:67
Track gain : -4.29 dB
Peak : 0.941376
CRC32 hash (test run) : 9BFF1714
CRC32 hash : 9BFF1714
CRC32 hash (skip zero) : B414C508
AccurateRip v1 signature : 42871C41
AccurateRip v2 signature : DADF03BE
->Track not present in AccurateRip database.
Statistics
Read error : 0
Jitter error (maybe fixed) : 0
Retry sector count : 0
Damaged sector count : 0
Track 08
Filename : /Users/valeriytereschuk/Music/Rip/Группа крови 2019 Maschina Records/CD1/08 Кино - Попробуй Спеть Вместе Со Мной.flac
Pre-gap length : 00:01:54
Track gain : -3.99 dB
Peak : 0.829895
CRC32 hash (test run) : B278AC9E
CRC32 hash : B278AC9E
CRC32 hash (skip zero) : D66FA267
AccurateRip v1 signature : 045C51E8
AccurateRip v2 signature : 484EDFA2
->Track not present in AccurateRip database.
Statistics
Read error : 0
Jitter error (maybe fixed) : 0
Retry sector count : 0
Damaged sector count : 0
Track 09
Filename : /Users/valeriytereschuk/Music/Rip/Группа крови 2019 Maschina Records/CD1/09 Кино - Прохожий.flac
Pre-gap length : 00:02:20
Track gain : -5.09 dB
Peak : 0.942902
CRC32 hash (test run) : 8769B9E7
CRC32 hash : 8769B9E7
CRC32 hash (skip zero) : FF40A26C
AccurateRip v1 signature : FCF7034E
AccurateRip v2 signature : D6BF1D75
->Track not present in AccurateRip database.
Statistics
Read error : 0
Jitter error (maybe fixed) : 0
Retry sector count : 0
Damaged sector count : 0
Track 10
Filename : /Users/valeriytereschuk/Music/Rip/Группа крови 2019 Maschina Records/CD1/10 Кино - Дальше Действовать Будем Мы.flac
Pre-gap length : 00:02:12
Track gain : -4.52 dB
Peak : 0.944305
CRC32 hash (test run) : FD62CDC5
CRC32 hash : FD62CDC5
CRC32 hash (skip zero) : 3B04E0BC
AccurateRip v1 signature : 4C734133
AccurateRip v2 signature : E193537E
->Track not present in AccurateRip database.
Statistics
Read error : 0
Jitter error (maybe fixed) : 0
Retry sector count : 0
Damaged sector count : 0
Track 11
Filename : /Users/valeriytereschuk/Music/Rip/Группа крови 2019 Maschina Records/CD1/11 Кино - Легенда.flac
Pre-gap length : 00:02:36
Track gain : -0.94 dB
Peak : 0.943024
CRC32 hash (test run) : DE69DAB3
CRC32 hash : DE69DAB3
CRC32 hash (skip zero) : 723E347B
AccurateRip v1 signature : B72636BA
AccurateRip v2 signature : 62459683
->Track not present in AccurateRip database.
Statistics
Read error : 0
Jitter error (maybe fixed) : 0
Retry sector count : 0
Damaged sector count : 0
No errors occurred
End of status report
-----BEGIN XLD SIGNATURE-----
bxU_3EEcNBY1uDtzHvZC69K6NHX9dBCHTuG8xbI5ANx2psd68Rd4J.JE14gakxQbnZ6_9A9xsHe14dmf240ISkfOiRrURobfIPaOpo8
-----END XLD SIGNATURE-----

CD 2

X Lossless Decoder version 20181019 (151.1)
XLD extraction logfile from 2019-06-21 19:44:21 +0300
KINO / Группа крови LIVE 1987
Used drive : MATSHITA DVD-RAM UJ870QJ (revision 1.00)
Media type : Pressed CD
Ripper mode : XLD Secure Ripper
Disable audio cache : OK for the drive with a cache less than 1375KiB
Make use of C2 pointers : NO
Read offset correction : 102
Max retry count : 20
Gap status : Analyzed, Appended
TOC of the extracted CD
Track | Start | Length | Start sector | End sector
---------------------------------------------------------
1 | 00:00:00 | 05:13:42 | 0 | 23516
2 | 05:13:42 | 05:14:30 | 23517 | 47096
3 | 10:27:72 | 00:48:49 | 47097 | 50745
4 | 11:16:46 | 04:16:57 | 50746 | 70002
5 | 15:33:28 | 04:47:18 | 70003 | 91545
6 | 20:20:46 | 04:24:58 | 91546 | 111403
7 | 24:45:29 | 04:01:02 | 111404 | 129480
8 | 28:46:31 | 03:12:19 | 129481 | 143899
9 | 31:58:50 | 03:26:23 | 143900 | 159372
10 | 35:24:73 | 03:34:73 | 159373 | 175495
11 | 38:59:71 | 03:15:19 | 175496 | 190139
AccurateRip Summary
Disc not found in AccurateRip DB.
All Tracks
Album gain : -4.39 dB
Peak : 0.942993
Statistics
Read error : 0
Jitter error (maybe fixed) : 0
Retry sector count : 0
Damaged sector count : 0
Track 01
Filename : /Users/valeriytereschuk/Music/Rip/Группа крови 2019 Maschina Records/CD2/01 Кино - Мы ждем перемен (оригинальная версия).flac
Pre-gap length : 00:02:00
Track gain : -5.30 dB
Peak : 0.942993
CRC32 hash (test run) : AB5FD834
CRC32 hash : AB5FD834
CRC32 hash (skip zero) : 86DFBDE3
AccurateRip v1 signature : 8F18518B
AccurateRip v2 signature : 613CCE2D
->Track not present in AccurateRip database.
Statistics
Read error : 0
Jitter error (maybe fixed) : 0
Retry sector count : 0
Damaged sector count : 0
Track 02
Filename : /Users/valeriytereschuk/Music/Rip/Группа крови 2019 Maschina Records/CD2/02 Кино - Мы ждем перемен (авторская версия).flac
Pre-gap length : 00:01:71
Track gain : -4.90 dB
Peak : 0.942963
CRC32 hash (test run) : EF24721F
CRC32 hash : EF24721F
CRC32 hash (skip zero) : 6B005094
AccurateRip v1 signature : 004DB5E5
AccurateRip v2 signature : 6B6C1525
->Track not present in AccurateRip database.
Statistics
Read error : 0
Jitter error (maybe fixed) : 0
Retry sector count : 0
Damaged sector count : 0
Track 03
Filename : /Users/valeriytereschuk/Music/Rip/Группа крови 2019 Maschina Records/CD2/03 Кино - Вступление.flac
Pre-gap length : 00:03:59
Track gain : 0.14 dB
Peak : 0.941284
CRC32 hash (test run) : 372E3E92
CRC32 hash : 372E3E92
CRC32 hash (skip zero) : 21EBFD9C
AccurateRip v1 signature : 46BCE12C
AccurateRip v2 signature : F249F971
->Track not present in AccurateRip database.
Statistics
Read error : 0
Jitter error (maybe fixed) : 0
Retry sector count : 0
Damaged sector count : 0
Track 04
Filename : /Users/valeriytereschuk/Music/Rip/Группа крови 2019 Maschina Records/CD2/04 Кино - Группа крови.flac
Track gain : -3.65 dB
Peak : 0.941650
CRC32 hash (test run) : A375724E
CRC32 hash : A375724E
CRC32 hash (skip zero) : AB59B9B1
AccurateRip v1 signature : 5C7490BF
AccurateRip v2 signature : 897EC65C
->Track not present in AccurateRip database.
Statistics
Read error : 0
Jitter error (maybe fixed) : 0
Retry sector count : 0
Damaged sector count : 0
Track 05
Filename : /Users/valeriytereschuk/Music/Rip/Группа крови 2019 Maschina Records/CD2/05 Кино - Следи за собой.flac
Track gain : -4.53 dB
Peak : 0.942932
CRC32 hash (test run) : 8C96E629
CRC32 hash : 8C96E629
CRC32 hash (skip zero) : 32DD3992
AccurateRip v1 signature : 9BC084AF
AccurateRip v2 signature : 57469ADF
->Track not present in AccurateRip database.
Statistics
Read error : 0
Jitter error (maybe fixed) : 0
Retry sector count : 0
Damaged sector count : 0
Track 06
Filename : /Users/valeriytereschuk/Music/Rip/Группа крови 2019 Maschina Records/CD2/06 Кино - Война.flac
Track gain : -3.82 dB
Peak : 0.939026
CRC32 hash (test run) : 574A7A51
CRC32 hash : 574A7A51
CRC32 hash (skip zero) : AD853B93
AccurateRip v1 signature : 6E1F27CC
AccurateRip v2 signature : E6A35E22
->Track not present in AccurateRip database.
Statistics
Read error : 0
Jitter error (maybe fixed) : 0
Retry sector count : 0
Damaged sector count : 0
Track 07
Filename : /Users/valeriytereschuk/Music/Rip/Группа крови 2019 Maschina Records/CD2/07 Кино - Бошетунмай.flac
Track gain : -4.40 dB
Peak : 0.942474
CRC32 hash (test run) : 485D7C99
CRC32 hash : 485D7C99
CRC32 hash (skip zero) : D389B2FE
AccurateRip v1 signature : 0AFB4EA6
AccurateRip v2 signature : 5F0C1D13
->Track not present in AccurateRip database.
Statistics
Read error : 0
Jitter error (maybe fixed) : 0
Retry sector count : 0
Damaged sector count : 0
Track 08
Filename : /Users/valeriytereschuk/Music/Rip/Группа крови 2019 Maschina Records/CD2/08 Кино - В наших глазах.flac
Track gain : -5.12 dB
Peak : 0.942963
CRC32 hash (test run) : 96418F8A
CRC32 hash : 96418F8A
CRC32 hash (skip zero) : F63B3010
AccurateRip v1 signature : DBD51D01
AccurateRip v2 signature : 5E489AEB
->Track not present in AccurateRip database.
Statistics
Read error : 0
Jitter error (maybe fixed) : 0
Retry sector count : 0
Damaged sector count : 0
Track 09
Filename : /Users/valeriytereschuk/Music/Rip/Группа крови 2019 Maschina Records/CD2/09 Кино - Мама, мы все тяжело больны.flac
Track gain : -5.32 dB
Peak : 0.942963
CRC32 hash (test run) : C8FFE515
CRC32 hash : C8FFE515
CRC32 hash (skip zero) : 6C98793B
AccurateRip v1 signature : 9FE5649C
AccurateRip v2 signature : 66A32295
->Track not present in AccurateRip database.
Statistics
Read error : 0
Jitter error (maybe fixed) : 0
Retry sector count : 0
Damaged sector count : 0
Track 10
Filename : /Users/valeriytereschuk/Music/Rip/Группа крови 2019 Maschina Records/CD2/10 Кино - Дорожка 10.flac
Track gain : 2.52 dB
Peak : 0.611694
CRC32 hash (test run) : 872A160A
CRC32 hash : 872A160A
CRC32 hash (skip zero) : 88D299D4
AccurateRip v1 signature : BCF6240B
AccurateRip v2 signature : 6BBB7DE9
->Track not present in AccurateRip database.
Statistics
Read error : 0
Jitter error (maybe fixed) : 0
Retry sector count : 0
Damaged sector count : 0
Track 11
Filename : /Users/valeriytereschuk/Music/Rip/Группа крови 2019 Maschina Records/CD2/11 Кино - Дорожка 11.flac
Track gain : -5.00 dB
Peak : 0.942688
CRC32 hash (test run) : 374D8101
CRC32 hash : 374D8101
CRC32 hash (skip zero) : 0492696F
AccurateRip v1 signature : 18202A96
AccurateRip v2 signature : 3B6DD978
->Track not present in AccurateRip database.
Statistics
Read error : 0
Jitter error (maybe fixed) : 0
Retry sector count : 0
Damaged sector count : 0
No errors occurred
End of status report
-----BEGIN XLD SIGNATURE-----
EtEj1fMqFyYWBFbtiO4Qytwpk.5t1PYcosgiS95jmDp04iOXME7dVWZ7pGY_pB30nEyEe5B5xoRxO0lTIk7jZE7nLORvJkRWG7gPk1q
-----END XLD SIGNATURE-----

CD 3

X Lossless Decoder version 20181019 (151.1)
XLD extraction logfile from 2019-06-21 20:20:27 +0300
Кино / Группа крови Черновик
Used drive : MATSHITA DVD-RAM UJ870QJ (revision 1.00)
Media type : Pressed CD
Ripper mode : XLD Secure Ripper
Disable audio cache : OK for the drive with a cache less than 1375KiB
Make use of C2 pointers : NO
Read offset correction : 102
Max retry count : 20
Gap status : Analyzed, Appended
TOC of the extracted CD
Track | Start | Length | Start sector | End sector
---------------------------------------------------------
1 | 00:00:00 | 04:49:34 | 0 | 21708
2 | 04:49:34 | 03:58:66 | 21709 | 39624
3 | 08:48:25 | 03:38:39 | 39625 | 56013
4 | 12:26:64 | 04:27:65 | 56014 | 76103
5 | 16:54:54 | 04:10:70 | 76104 | 94923
6 | 21:05:49 | 05:55:10 | 94924 | 121558
7 | 27:00:59 | 04:36:40 | 121559 | 142298
8 | 31:37:24 | 03:05:74 | 142299 | 156247
9 | 34:43:23 | 04:04:61 | 156248 | 174608
10 | 38:48:09 | 04:06:09 | 174609 | 193067
11 | 42:54:18 | 04:15:02 | 193068 | 212194
AccurateRip Summary
Disc not found in AccurateRip DB.
All Tracks
Album gain : -3.13 dB
Peak : 0.934937
Statistics
Read error : 0
Jitter error (maybe fixed) : 0
Retry sector count : 0
Damaged sector count : 0
Track 01
Filename : /Users/valeriytereschuk/Music/Rip/Группа крови 2019 Maschina Records/CD3/01 Кино - Группа крови.flac
Pre-gap length : 00:02:00
Track gain : -2.60 dB
Peak : 0.870575
CRC32 hash (test run) : 32E0A784
CRC32 hash : 32E0A784
CRC32 hash (skip zero) : AB9AC689
AccurateRip v1 signature : 6662447B
AccurateRip v2 signature : B40E7B47
->Track not present in AccurateRip database.
Statistics
Read error : 0
Jitter error (maybe fixed) : 0
Retry sector count : 0
Damaged sector count : 0
Track 02
Filename : /Users/valeriytereschuk/Music/Rip/Группа крови 2019 Maschina Records/CD3/02 Кино - Закрой за мной дверь, я ухожу.flac
Track gain : -3.18 dB
Peak : 0.880463
CRC32 hash (test run) : 0AF9ABA1
CRC32 hash : 0AF9ABA1
CRC32 hash (skip zero) : ACDB3AC9
AccurateRip v1 signature : 774343C2
AccurateRip v2 signature : F1274122
->Track not present in AccurateRip database.
Statistics
Read error : 0
Jitter error (maybe fixed) : 0
Retry sector count : 0
Damaged sector count : 0
Track 03
Filename : /Users/valeriytereschuk/Music/Rip/Группа крови 2019 Maschina Records/CD3/03 Кино - В наших глазах.flac
Track gain : -2.49 dB
Peak : 0.840485
CRC32 hash (test run) : 058DB37C
CRC32 hash : 058DB37C
CRC32 hash (skip zero) : 47B6D210
AccurateRip v1 signature : 7BA0228B
AccurateRip v2 signature : 68A6C2E2
->Track not present in AccurateRip database.
Statistics
Read error : 0
Jitter error (maybe fixed) : 0
Retry sector count : 0
Damaged sector count : 0
Track 04
Filename : /Users/valeriytereschuk/Music/Rip/Группа крови 2019 Maschina Records/CD3/04 Кино - Бошетунмай.flac
Track gain : -3.39 dB
Peak : 0.920258
CRC32 hash (test run) : EF9831E1
CRC32 hash : EF9831E1
CRC32 hash (skip zero) : D1C790CB
AccurateRip v1 signature : 4EA83361
AccurateRip v2 signature : F5D22EAC
->Track not present in AccurateRip database.
Statistics
Read error : 0
Jitter error (maybe fixed) : 0
Retry sector count : 0
Damaged sector count : 0
Track 05
Filename : /Users/valeriytereschuk/Music/Rip/Группа крови 2019 Maschina Records/CD3/05 Кино - Мама, мы все тяжело больны.flac
Track gain : -3.16 dB
Peak : 0.934937
CRC32 hash (test run) : E1504B64
CRC32 hash : E1504B64
CRC32 hash (skip zero) : 4879447B
AccurateRip v1 signature : 83032D9A
AccurateRip v2 signature : A35FF05B
->Track not present in AccurateRip database.
Statistics
Read error : 0
Jitter error (maybe fixed) : 0
Retry sector count : 0
Damaged sector count : 0
Track 06
Filename : /Users/valeriytereschuk/Music/Rip/Группа крови 2019 Maschina Records/CD3/06 Кино - Спокойная ночь.flac
Track gain : -3.21 dB
Peak : 0.918427
CRC32 hash (test run) : 3892D1E8
CRC32 hash : 3892D1E8
CRC32 hash (skip zero) : 6D697219
AccurateRip v1 signature : 658DE5EE
AccurateRip v2 signature : 7298CAE6
->Track not present in AccurateRip database.
Statistics
Read error : 0
Jitter error (maybe fixed) : 0
Retry sector count : 0
Damaged sector count : 0
Track 07
Filename : /Users/valeriytereschuk/Music/Rip/Группа крови 2019 Maschina Records/CD3/07 Кино - Попробуй спеть вместе со мной.flac
Track gain : -4.71 dB
Peak : 0.929901
CRC32 hash (test run) : F3DBD58D
CRC32 hash : F3DBD58D
CRC32 hash (skip zero) : 7AC427B4
AccurateRip v1 signature : F0F01603
AccurateRip v2 signature : 6D78CE96
->Track not present in AccurateRip database.
Statistics
Read error : 0
Jitter error (maybe fixed) : 0
Retry sector count : 0
Damaged sector count : 0
Track 08
Filename : /Users/valeriytereschuk/Music/Rip/Группа крови 2019 Maschina Records/CD3/08 Кино - Прохожий.flac
Track gain : -3.10 dB
Peak : 0.920319
CRC32 hash (test run) : 56EC8973
CRC32 hash : 56EC8973
CRC32 hash (skip zero) : CF2155A8
AccurateRip v1 signature : A2B7ACDB
AccurateRip v2 signature : 6CE628C4
->Track not present in AccurateRip database.
Statistics
Read error : 0
Jitter error (maybe fixed) : 0
Retry sector count : 0
Damaged sector count : 0
Track 09
Filename : /Users/valeriytereschuk/Music/Rip/Группа крови 2019 Maschina Records/CD3/09 Кино - Дальше действовать будем мы.flac
Track gain : -2.98 dB
Peak : 0.881561
CRC32 hash (test run) : F07C7F5A
CRC32 hash : F07C7F5A
CRC32 hash (skip zero) : DFD172A4
AccurateRip v1 signature : D815EB90
AccurateRip v2 signature : A4B842E4
->Track not present in AccurateRip database.
Statistics
Read error : 0
Jitter error (maybe fixed) : 0
Retry sector count : 0
Damaged sector count : 0
Track 10
Filename : /Users/valeriytereschuk/Music/Rip/Группа крови 2019 Maschina Records/CD3/10 Кино - Война.flac
Track gain : -2.64 dB
Peak : 0.855896
CRC32 hash (test run) : 4F7BB0CC
CRC32 hash : 4F7BB0CC
CRC32 hash (skip zero) : 76AC8CC3
AccurateRip v1 signature : DF35755F
AccurateRip v2 signature : 88B7F8E4
->Track not present in AccurateRip database.
Statistics
Read error : 0
Jitter error (maybe fixed) : 0
Retry sector count : 0
Damaged sector count : 0
Track 11
Filename : /Users/valeriytereschuk/Music/Rip/Группа крови 2019 Maschina Records/CD3/11 Кино - Легенда.flac
Track gain : 6.85 dB
Peak : 0.713165
CRC32 hash (test run) : 1D7622D1
CRC32 hash : 1D7622D1
CRC32 hash (skip zero) : CF6A34CB
AccurateRip v1 signature : F68059C1
AccurateRip v2 signature : F523EEF9
->Track not present in AccurateRip database.
Statistics
Read error : 0
Jitter error (maybe fixed) : 0
Retry sector count : 0
Damaged sector count : 0
No errors occurred
End of status report
-----BEGIN XLD SIGNATURE-----
6qy5DLGXcYdEh1mOFAOVgOvNcUG5KA3aIjahT2UhdgqpvOiK_9vBt_rIMR9FaFyQ7f44mYZ2oXtL8EG2ei_JG2uf1oo5xZHGMNRTqrq
-----END XLD SIGNATURE-----

Содержание индексной карты (.CUE)

CD 1

TITLE "Группа крови"
PERFORMER "Кино"
REM GENRE "Rock"
REM DATE "1988"
REM DISCNUMBER 1
REM TOTALDISCS 1
REM DISCID 9F0B410B
REM REPLAYGAIN_ALBUM_GAIN -3.88 dB
REM REPLAYGAIN_ALBUM_PEAK 0.944305
FILE "01 Кино - Группа Крови.flac" WAVE
TRACK 01 AUDIO
TITLE "Группа Крови"
SONGWRITER "В.Цой/Виктор Цой"
REM COMMENT "2019 Maschina Records"
REM REPLAYGAIN_TRACK_GAIN -4.07 dB
REM REPLAYGAIN_TRACK_PEAK 0.943115
INDEX 01 00:00:00
TRACK 02 AUDIO
TITLE "Закрой За Мной Дверь, Я Ухожу"
SONGWRITER "В.Цой/Виктор Цой"
REM COMMENT "2019 Maschina Records"
REM REPLAYGAIN_TRACK_GAIN -3.59 dB
REM REPLAYGAIN_TRACK_PEAK 0.941711
INDEX 00 04:44:44
FILE "02 Кино - Закрой За Мной Дверь, Я Ухожу.flac" WAVE
INDEX 01 00:00:00
TRACK 03 AUDIO
TITLE "Война"
SONGWRITER "В.Цой/Виктор Цой"
REM COMMENT "2019 Maschina Records"
REM REPLAYGAIN_TRACK_GAIN -2.98 dB
REM REPLAYGAIN_TRACK_PEAK 0.828217
INDEX 00 04:16:73
FILE "03 Кино - Война.flac" WAVE
INDEX 01 00:00:00
TRACK 04 AUDIO
TITLE "Спокойная Ночь"
SONGWRITER "В.Цой/Виктор Цой"
REM COMMENT "2019 Maschina Records"
REM REPLAYGAIN_TRACK_GAIN -3.21 dB
REM REPLAYGAIN_TRACK_PEAK 0.828430
INDEX 00 04:04:31
FILE "04 Кино - Спокойная Ночь.flac" WAVE
INDEX 01 00:00:00
TRACK 05 AUDIO
TITLE "Мама, Мы Все Тяжело Больны"
SONGWRITER "В.Цой/Виктор Цой"
REM COMMENT "2019 Maschina Records"
REM REPLAYGAIN_TRACK_GAIN -3.82 dB
REM REPLAYGAIN_TRACK_PEAK 0.942566
INDEX 00 06:12:62
FILE "05 Кино - Мама, Мы Все Тяжело Больны.flac" WAVE
INDEX 01 00:00:00
TRACK 06 AUDIO
TITLE "Бошетунмай"
SONGWRITER "В.Цой/Виктор Цой"
REM COMMENT "2019 Maschina Records"
REM REPLAYGAIN_TRACK_GAIN -5.09 dB
REM REPLAYGAIN_TRACK_PEAK 0.943756
INDEX 00 04:06:56
FILE "06 Кино - Бошетунмай.flac" WAVE
INDEX 01 00:00:00
TRACK 07 AUDIO
TITLE "В Наших Глазах"
SONGWRITER "В.Цой/Виктор Цой"
REM COMMENT "2019 Maschina Records"
REM REPLAYGAIN_TRACK_GAIN -4.29 dB
REM REPLAYGAIN_TRACK_PEAK 0.941376
INDEX 00 04:10:47
FILE "07 Кино - В Наших Глазах.flac" WAVE
INDEX 01 00:00:00
TRACK 08 AUDIO
TITLE "Попробуй Спеть Вместе Со Мной"
SONGWRITER "В.Цой/Виктор Цой"
REM COMMENT "2019 Maschina Records"
REM REPLAYGAIN_TRACK_GAIN -3.99 dB
REM REPLAYGAIN_TRACK_PEAK 0.829895
INDEX 00 03:33:36
FILE "08 Кино - Попробуй Спеть Вместе Со Мной.flac" WAVE
INDEX 01 00:00:00
TRACK 09 AUDIO
TITLE "Прохожий"
SONGWRITER "В.Цой/Виктор Цой"
REM COMMENT "2019 Maschina Records"
REM REPLAYGAIN_TRACK_GAIN -5.09 dB
REM REPLAYGAIN_TRACK_PEAK 0.942902
INDEX 00 04:35:74
FILE "09 Кино - Прохожий.flac" WAVE
INDEX 01 00:00:00
TRACK 10 AUDIO
TITLE "Дальше Действовать Будем Мы"
SONGWRITER "В.Цой/Виктор Цой"
REM COMMENT "2019 Maschina Records"
REM REPLAYGAIN_TRACK_GAIN -4.52 dB
REM REPLAYGAIN_TRACK_PEAK 0.944305
INDEX 00 03:39:26
FILE "10 Кино - Дальше Действовать Будем Мы.flac" WAVE
INDEX 01 00:00:00
TRACK 11 AUDIO
TITLE "Легенда"
SONGWRITER "В.Цой/Виктор Цой"
REM COMMENT "2019 Maschina Records"
REM REPLAYGAIN_TRACK_GAIN -0.94 dB
REM REPLAYGAIN_TRACK_PEAK 0.943024
INDEX 00 03:56:41
FILE "11 Кино - Легенда.flac" WAVE
INDEX 01 00:00:00

CD 2

TITLE "Группа крови LIVE 1987"
PERFORMER "KINO"
REM GENRE "Рок"
REM DATE "1987"
REM DISCNUMBER 2
REM TOTALDISCS 3
REM DISCID 9009E70B
REM REPLAYGAIN_ALBUM_GAIN -4.39 dB
REM REPLAYGAIN_ALBUM_PEAK 0.942993
FILE "01 Кино - Мы ждем перемен (оригинальная версия).flac" WAVE
TRACK 01 AUDIO
TITLE "Мы ждем перемен (оригинальная версия)"
PERFORMER "Кино"
REM REPLAYGAIN_TRACK_GAIN -5.30 dB
REM REPLAYGAIN_TRACK_PEAK 0.942993
INDEX 01 00:00:00
TRACK 02 AUDIO
TITLE "Мы ждем перемен (авторская версия)"
PERFORMER "Кино"
REM REPLAYGAIN_TRACK_GAIN -4.90 dB
REM REPLAYGAIN_TRACK_PEAK 0.942963
INDEX 00 05:11:46
FILE "02 Кино - Мы ждем перемен (авторская версия).flac" WAVE
INDEX 01 00:00:00
TRACK 03 AUDIO
TITLE "Вступление"
PERFORMER "Кино"
REM REPLAYGAIN_TRACK_GAIN 0.14 dB
REM REPLAYGAIN_TRACK_PEAK 0.941284
INDEX 00 05:10:46
FILE "03 Кино - Вступление.flac" WAVE
INDEX 01 00:00:00
FILE "04 Кино - Группа крови.flac" WAVE
TRACK 04 AUDIO
TITLE "Группа крови"
PERFORMER "Кино"
REM REPLAYGAIN_TRACK_GAIN -3.65 dB
REM REPLAYGAIN_TRACK_PEAK 0.941650
INDEX 01 00:00:00
FILE "05 Кино - Следи за собой.flac" WAVE
TRACK 05 AUDIO
TITLE "Следи за собой"
PERFORMER "Кино"
REM REPLAYGAIN_TRACK_GAIN -4.53 dB
REM REPLAYGAIN_TRACK_PEAK 0.942932
INDEX 01 00:00:00
FILE "06 Кино - Война.flac" WAVE
TRACK 06 AUDIO
TITLE "Война"
PERFORMER "Кино"
REM REPLAYGAIN_TRACK_GAIN -3.82 dB
REM REPLAYGAIN_TRACK_PEAK 0.939026
INDEX 01 00:00:00
FILE "07 Кино - Бошетунмай.flac" WAVE
TRACK 07 AUDIO
TITLE "Бошетунмай"
PERFORMER "Кино"
REM REPLAYGAIN_TRACK_GAIN -4.40 dB
REM REPLAYGAIN_TRACK_PEAK 0.942474
INDEX 01 00:00:00
FILE "08 Кино - В наших глазах.flac" WAVE
TRACK 08 AUDIO
TITLE "В наших глазах"
PERFORMER "Кино"
REM REPLAYGAIN_TRACK_GAIN -5.12 dB
REM REPLAYGAIN_TRACK_PEAK 0.942963
INDEX 01 00:00:00
FILE "09 Кино - Мама, мы все тяжело больны.flac" WAVE
TRACK 09 AUDIO
TITLE "Мама, мы все тяжело больны"
PERFORMER "Кино"
REM REPLAYGAIN_TRACK_GAIN -5.32 dB
REM REPLAYGAIN_TRACK_PEAK 0.942963
INDEX 01 00:00:00
FILE "10 Кино - Дорожка 10.flac" WAVE
TRACK 10 AUDIO
TITLE "Дорожка 10"
PERFORMER "Кино"
REM REPLAYGAIN_TRACK_GAIN 2.52 dB
REM REPLAYGAIN_TRACK_PEAK 0.611694
INDEX 01 00:00:00
FILE "11 Кино - Дорожка 11.flac" WAVE
TRACK 11 AUDIO
TITLE "Дорожка 11"
PERFORMER "Кино"
REM REPLAYGAIN_TRACK_GAIN -5.00 dB
REM REPLAYGAIN_TRACK_PEAK 0.942688
INDEX 01 00:00:00

CD 3

TITLE "Группа крови Черновик"
PERFORMER "Кино"
REM GENRE "Рок"
REM DATE "1987"
REM DISCNUMBER 3
REM TOTALDISCS 3
REM DISCID 920B0D0B
REM REPLAYGAIN_ALBUM_GAIN -3.13 dB
REM REPLAYGAIN_ALBUM_PEAK 0.934937
FILE "01 Кино - Группа крови.flac" WAVE
TRACK 01 AUDIO
TITLE "Группа крови"
REM REPLAYGAIN_TRACK_GAIN -2.60 dB
REM REPLAYGAIN_TRACK_PEAK 0.870575
INDEX 01 00:00:00
FILE "02 Кино - Закрой за мной дверь, я ухожу.flac" WAVE
TRACK 02 AUDIO
TITLE "Закрой за мной дверь, я ухожу"
REM REPLAYGAIN_TRACK_GAIN -3.18 dB
REM REPLAYGAIN_TRACK_PEAK 0.880463
INDEX 01 00:00:00
FILE "03 Кино - В наших глазах.flac" WAVE
TRACK 03 AUDIO
TITLE "В наших глазах"
REM REPLAYGAIN_TRACK_GAIN -2.49 dB
REM REPLAYGAIN_TRACK_PEAK 0.840485
INDEX 01 00:00:00
FILE "04 Кино - Бошетунмай.flac" WAVE
TRACK 04 AUDIO
TITLE "Бошетунмай"
REM REPLAYGAIN_TRACK_GAIN -3.39 dB
REM REPLAYGAIN_TRACK_PEAK 0.920258
INDEX 01 00:00:00
FILE "05 Кино - Мама, мы все тяжело больны.flac" WAVE
TRACK 05 AUDIO
TITLE "Мама, мы все тяжело больны"
REM REPLAYGAIN_TRACK_GAIN -3.16 dB
REM REPLAYGAIN_TRACK_PEAK 0.934937
INDEX 01 00:00:00
FILE "06 Кино - Спокойная ночь.flac" WAVE
TRACK 06 AUDIO
TITLE "Спокойная ночь"
REM REPLAYGAIN_TRACK_GAIN -3.21 dB
REM REPLAYGAIN_TRACK_PEAK 0.918427
INDEX 01 00:00:00
FILE "07 Кино - Попробуй спеть вместе со мной.flac" WAVE
TRACK 07 AUDIO
TITLE "Попробуй спеть вместе со мной"
REM REPLAYGAIN_TRACK_GAIN -4.71 dB
REM REPLAYGAIN_TRACK_PEAK 0.929901
INDEX 01 00:00:00
FILE "08 Кино - Прохожий.flac" WAVE
TRACK 08 AUDIO
TITLE "Прохожий"
REM REPLAYGAIN_TRACK_GAIN -3.10 dB
REM REPLAYGAIN_TRACK_PEAK 0.920319
INDEX 01 00:00:00
FILE "09 Кино - Дальше действовать будем мы.flac" WAVE
TRACK 09 AUDIO
TITLE "Дальше действовать будем мы"
REM REPLAYGAIN_TRACK_GAIN -2.98 dB
REM REPLAYGAIN_TRACK_PEAK 0.881561
INDEX 01 00:00:00
FILE "10 Кино - Война.flac" WAVE
TRACK 10 AUDIO
TITLE "Война"
REM REPLAYGAIN_TRACK_GAIN -2.64 dB
REM REPLAYGAIN_TRACK_PEAK 0.855896
INDEX 01 00:00:00
FILE "11 Кино - Легенда.flac" WAVE
TRACK 11 AUDIO
TITLE "Легенда"
REM REPLAYGAIN_TRACK_GAIN 6.85 dB
REM REPLAYGAIN_TRACK_PEAK 0.713165
INDEX 01 00:00:00
[torrents24.ru].t87159.torrent 
Торрент: Зарегистрирован [ 2019-06-23 16:10 ] · BC5CA356816F089359FA91FC3C35A8F2D4420C08

Скачать .torrent

Скачать

37 KB

Статус: проверено
Скачан: 2 раз
Размер: 850 MB
terms.php
[Профиль] [ЛС]
Показать сообщения:    
Ответить на тему

Текущее время: 22-Июл 19:03

Часовой пояс: UTC + 3



Вы не можете начинать темы
Вы не можете отвечать на сообщения
Вы не можете редактировать свои сообщения
Вы не можете удалять свои сообщения
Вы не можете голосовать в опросах
Вы не можете прикреплять файлы к сообщениям
Вы можете скачивать файлы
viagra without a doctor prescription

Интересное в сети