Новый Амстердам / New Amsterdam / Сезон: 1 / Серии: 1-22 (22) (Кейт Дэннис, Питер Хортон, Дарнелл Мартин, Джонас Пейт) [2018, США, драма, WEB-DLRip] MVO (TVShows)

Ответить на тему
Статистика раздачи
Размер:  11,88 GB   |    Зарегистрирован:  14 дней   |    Скачан:  0 раз
Сидов:  1  [  0 KB/s  ]  
 
   
 
 
Автор Сообщение

Domino ®

Пол: Не указан

Стаж: 1 год 4 месяца

Сообщений: 381

Создавать темы 11-Июн-2019 15:33

[Цитировать]

Новый Амстердам / New Amsterdam
Год выпуска: 2018
Страна: США
Жанр: драма
Продолжительность: ~ 00:43:00
Перевод: Любительский (многоголосый закадровый) | TVShows
Субтитры: нет
Режиссёр: Кейт Дэннис, Питер Хортон, Дарнелл Мартин, Джонас Пейт
-В ролях:
Кристофер Кассарино, Стэйси Элис Коэн, Стэйси Рэймонд, Лиззи ДеКлемент, Вера Лам, Райан Эгголд, Фрима Аджьеман, Джанет Монтгомери, Джоко Симс, Анупам Кхер
Описание:
Опытный специалист Макс Гудвин становится новым главврачом старейшей государственной больницы США «Новый Амстердам». Его цель — вернуть былой престиж больнице, в которой сейчас не хватает персонала, оборудования и финансирования. Несмотря на все его старания, сотрудники пока не готовы довериться Гудвину: его предшественники также обещали привести больницу в порядок, но их заверения оставались просто словами.-Качество: WEB-DLRip
Формат: AVI
Видео кодек: XviD
Видео: 720x400 (1.80:1), 23.976 fps, XviD build 73 ~1600 kbps avg, 0.23 bit/pixel
Аудио Rus: 48 kHz, AC3 Dolby Digital, 2/0 (L,R) ch, ~192 kbps
-Рип: Ruddle
Реклама отсутствует
- -Все раздачи сериала-

MI

Код:Общее
Полное имя : D:\New Amsterdam Season 1 WEB-DLRip\New.Amsterdam.s01e01.WEB-DLRip.RGzsRutracker.avi
Формат : AVI
Формат/Информация : Audio Video Interleave
Размер файла : 554 Мбайт
Продолжительность : 42 м. 59 с.
Общий поток : 1801 Кбит/сек
Программа кодирования : VirtualDubMod 1.5.10.3 | www.virtualdub-fr.org || (build 2550/release)
Библиотека кодирования : VirtualDubMod build 2550/release
Видео
Идентификатор : 0
Формат : MPEG-4 Visual
Профиль формата : Advanced Simple@L5
Настройки формата : BVOP1 / Custom Matrix
Параметр BVOP формата : 1
Параметр QPel формата : Нет
Параметр GMC формата : Без точки перехода
Параметр матрицы формата : Выборочная
Идентификатор кодека : XVID
Идентификатор кодека/Подсказка : XviD
Продолжительность : 42 м. 59 с.
Битрейт : 1600 Кбит/сек
Ширина : 720 пикселей
Высота : 400 пикселей
Соотношение сторон : 16:9
Частота кадров : 23,976 (24000/1001) кадра/сек
Цветовое пространство : YUV
Субдискретизация насыщенности : 4:2:0
Битовая глубина : 8 бит
Тип развёртки : Прогрессивная
Метод сжатия : С потерями
Бит/(Пиксели*Кадры) : 0.232
Размер потока : 492 Мбайт (89%)
Библиотека кодирования : XviD 73
Аудио
Идентификатор : 1
Формат : AC-3
Формат/Информация : Audio Coding 3
Идентификатор кодека : 2000
Продолжительность : 42 м. 59 с.
Вид битрейта : Постоянный
Битрейт : 192 Кбит/сек
Каналы : 2 канала
Расположение каналов : Front: L R
Частота : 48,0 КГц
Частота кадров : 31,250 кадров/сек (1536 SPF)
Битовая глубина : 16 бит
Метод сжатия : С потерями
Размер потока : 59,0 Мбайт (11%)
Выравнивание : Разделение по промежуткам
Продолжительность промежутка : 42 мс. (1,00 видеокадр)
Время предзагрузки промежутка : 500 мс.
ServiceKind/String : Complete Main

Скриншоты


Релиз группы:
[torrents24.ru].t86164.torrent 
Торрент: Зарегистрирован [ 2019-06-11 15:35 ] · 8A456B0CEDD9987F63B4D499A64042FB9B0D9213

Скачать .torrent

Скачать

63 KB

Статус: проверено
Скачан: 0 раз
Размер: 11,88 GB
terms.php
[Профиль] [ЛС]
Показать сообщения:    
Ответить на тему

Текущее время: 26-Июн 09:07

Часовой пояс: UTC + 3



Вы не можете начинать темы
Вы не можете отвечать на сообщения
Вы не можете редактировать свои сообщения
Вы не можете удалять свои сообщения
Вы не можете голосовать в опросах
Вы не можете прикреплять файлы к сообщениям
Вы можете скачивать файлы

Интересное в сети