Воин / Warrior / Сезон: 1 / Серии: 1-10 из 10 (Лони Перистер, Лин Одинг, Дэвид Петрарка, Асаф Бернштейн, Кевин Танчароэн) [2019, США, боевик, драма, история, WEB-DLRip-AVC] MVO (Amedia)

Ответить на тему
Статистика раздачи
Размер:  4,04 GB   |    Зарегистрирован:  14 дней   |    Скачан:  0 раз
Сидов:  3  [  0 KB/s  ]  
 
   
 
 
Автор Сообщение

Domino ®

Пол: Не указан

Стаж: 1 год 4 месяца

Сообщений: 381

Создавать темы 11-Июн-2019 15:33

[Цитировать]

-Воин / Warrior-- -Год выпуска: 2019
Страна: США
Жанр: боевик, драма, история
Продолжительность: ~01:00:00-Перевод: Профессиональный (многоголосый закадровый) Amedia-Режиссёр: Лони Перистер, Лин Одинг, Дэвид Петрарка, Асаф Бернштейн, Кевин Танчароэн-В ролях: Эндрю Кодзи, Джейсон Дж. Тобин, Оливия Ченг, Дайян Доан, Киран Бью, Лэнгли Кирквуд, Перри Юнг, Дин Джаггер III, Рич Тинг, Райан Крюгер-Описание: Сериал основан на оригинальной идее Брюса Ли. В 1890-х годах город Сан-Франциско страдал от коррупции и мафии. В китайском квартале Сан-Франциско междоусобные войны достигли особого размаха. В это неспокойное время в город из Китая прибывает молодой мастер восточных единоборств А Сам (Ah Sahm). Молодой человек тут же оказывается втянутым в кровавые разборки между двумя опасными соперничающими друг с другом группировками Тонг в Чайнатауне. А Сам подвергает себя смертельной опасности, после того как план мести, который он готовил не один год, становится известен его врагам.- - -Предыдущие и альтернативные раздачи-Качество: WEB-DLRip-AVC / WEB-DL 1080p
Формат: MKV-Видео: MPEG-4 AVC, 736x414 (16:9), 23.976 fps, ~1000 kbps avg, 0.137 bit/pixel
Аудио: 48 kHz, AC3 Dolby Digital, 2/0 (L,R) ch, ~192 kbps avg
Субтитры: русские (форсированные)-Реклама: нет-

MediaInfo

Код:Complete name : D:\Раздача\Warrior (2019) S01\Warrior (2019) S01E01 WEB-DLRip-AVC_ivanes.mkv
Format : Matroska
Format version : Version 2
File size : 519 MiB
Duration : 1 h 0 min
Overall bit rate : 1 192 kb/s
Movie name : Warrior (2019) S01E01 WEB-DLRip-AVC_ivanes
Encoded date : UTC 2019-06-10 19:27:44
Writing application : mkvmerge v4.4.0 ('Die Wiederkehr') сборка от Jan 3 2011 21:40:45
Writing library : libebml v1.0.0 + libmatroska v1.0.0
Cover : Yes
Attachments : cover.jpg
Video
ID : 1
Format : AVC
Format/Info : Advanced Video Codec
Format profile : High@L4.1
Format settings, CABAC : Yes
Format settings, RefFrames : 10 frames
Codec ID : V_MPEG4/ISO/AVC
Duration : 1 h 0 min
Bit rate : 999 kb/s
Width : 736 pixels
Height : 414 pixels
Display aspect ratio : 16:9
Frame rate mode : Constant
Frame rate : 23.976 (24000/1001) FPS
Color space : YUV
Chroma subsampling : 4:2:0
Bit depth : 8 bits
Scan type : Progressive
Bits/(Pixel*Frame) : 0.137
Stream size : 425 MiB (82%)
Title : Rip by ivanes
Writing library : x264 core 157 r2969 d4099dd
Encoding settings : cabac=1 / ref=10 / deblock=1:-3:-3 / analyse=0x3:0x113 / me=umh / subme=8 / psy=1 / psy_rd=1.00:0.00 / mixed_ref=1 / me_range=32 / chroma_me=1 / trellis=2 / 8x8dct=1 / cqm=0 / deadzone=21,11 / fast_pskip=0 / chroma_qp_offset=-2 / threads=12 / lookahead_threads=3 / sliced_threads=0 / nr=0 / decimate=1 / interlaced=0 / bluray_compat=0 / constrained_intra=0 / bframes=10 / b_pyramid=2 / b_adapt=2 / b_bias=0 / direct=1 / weightb=1 / open_gop=0 / weightp=2 / keyint=240 / keyint_min=23 / scenecut=40 / intra_refresh=0 / rc_lookahead=60 / rc=2pass / mbtree=0 / bitrate=999 / ratetol=1.0 / qcomp=0.60 / qpmin=0 / qpmax=69 / qpstep=4 / cplxblur=20.0 / qblur=0.5 / vbv_maxrate=50000 / vbv_bufsize=62500 / nal_hrd=none / filler=0 / ip_ratio=1.40 / pb_ratio=1.30 / aq=1:1.00
Default : Yes
Forced : No
Statistics Tags Issue : mkvmerge v10.0.0 ('To Drown In You') 64bit 2019-06-10 19:25:52 / mkvmerge v4.4.0 ('Die Wiederkehr') сборка от Jan 3 2011 21:40:45 2019-06-10 19:27:44
FromStats_BitRate : 998619
FromStats_Duration : 01:00:53.650000000
FromStats_FrameCount : 87600
FromStats_StreamSize : 456075914
Audio
ID : 2
Format : AC-3
Format/Info : Audio Coding 3
Format settings, Endianness : Big
Codec ID : A_AC3
Duration : 1 h 0 min
Bit rate mode : Constant
Bit rate : 192 kb/s
Channel(s) : 2 channels
Channel positions : Front: L R
Sampling rate : 48.0 kHz
Frame rate : 31.250 FPS (1536 SPF)
Bit depth : 16 bits
Compression mode : Lossy
Stream size : 83.6 MiB (16%)
Language : Russian
Service kind : Complete Main
Default : Yes
Forced : No
Text
ID : 3
Format : UTF-8
Codec ID : S_TEXT/UTF8
Codec ID/Info : UTF-8 Plain Text
Title : Forced
Language : Russian
Default : Yes
Forced : No

Скриншоты

[torrents24.ru].t86160.torrent 
Торрент: Зарегистрирован [ 2019-06-11 15:35 ] · B36D1C8E3E0BAF47FAB46A221CD899BDEA236985

Скачать .torrent

Скачать

11 KB

Статус: проверено
Скачан: 0 раз
Размер: 4,04 GB
terms.php
[Профиль] [ЛС]
Показать сообщения:    
Ответить на тему

Текущее время: 26-Июн 09:41

Часовой пояс: UTC + 3



Вы не можете начинать темы
Вы не можете отвечать на сообщения
Вы не можете редактировать свои сообщения
Вы не можете удалять свои сообщения
Вы не можете голосовать в опросах
Вы не можете прикреплять файлы к сообщениям
Вы можете скачивать файлы

Интересное в сети