(Latin, Alternative, Pop, Rock) [CD] Dorian - Justicia Universal - 2018, FLAC (image+.cue), lossless

Ответить на тему
Статистика раздачи
Размер:  308 MB   |    Зарегистрирован:  14 дней   |    Скачан:  0 раз

Полного источника не было: Никогда

 
   
 
 
Автор Сообщение

mors ®

Пол: Не указан

Стаж: 1 год 3 месяца

Сообщений: 116

Создавать темы 11-Июн-2019 15:34

[Цитировать]

Dorian / Justicia Universal
Жанр: Latin, Alternative, Pop, Rock
Носитель: CD
Страна-производитель диска (релиза): México
Год издания: 2018
Издатель (лейбл): ℗ 2018 Intromúsica Records
Номер по каталогу: M-5832-2018
Страна исполнителя (группы): España
Аудиокодек: FLAC (*.flac)
Тип рипа: image+.cue
Продолжительность: 00:43:47
Источник: собственная покупка
Наличие сканов в содержимом раздачи: нет

Треклист:
1. Noches Blancas
2. Algunos Amigos
3. Duele (feat. León Larregui)
4. Justicia Universal
5. Vicios y Defectos (feat. Javiera Mena)
6. Llévame
7. La Isla
8. Buenas Intenciones (feat. Nita de Fuel Fandango)
9. Señales
10. Hasta Que Caiga el Sol
11. Cometas

Лог создания рипа

Exact Audio Copy V1.3 from 2. September 2016
EAC extraction logfile from 10. June 2019, 11:47
Dorian / Justicia Universal
Used drive : HL-DT-STDVDRAM GSA-T20L Adapter: 1 ID: 0
Read mode : Secure
Utilize accurate stream : Yes
Defeat audio cache : Yes
Make use of C2 pointers : No
Read offset correction : 667
Overread into Lead-In and Lead-Out : No
Fill up missing offset samples with silence : Yes
Delete leading and trailing silent blocks : No
Null samples used in CRC calculations : Yes
Used interface : Native Win32 interface for Win NT & 2000
Used output format : User Defined Encoder
Selected bitrate : 768 kBit/s
Quality : High
Add ID3 tag : No
Command line compressor : C:\Program Files (x86)\Exact Audio Copy\FLAC\FLAC.EXE
Additional command line options : -6 -V -T "ARTIST=%artist%" -T "TITLE=%title%" -T "ALBUM=%albumtitle%" -T "DATE=%year%" -T "TRACKNUMBER=%tracknr%" -T "GENRE=%genre%" -T "COMMENT=%comment%" -T "BAND=%albuminterpret%" -T "ALBUMARTIST=%albuminterpret%" -T "COMPOSER=%composer%" %haslyrics%--tag-from-file=LYRICS="%lyricsfile%"%haslyrics% -T "DISCNUMBER=%cdnumber%" -T "TOTALDISCS=%totalcds%" -T "TOTALTRACKS=%numtracks%" %hascover%--picture="%coverfile%"%hascover% %source% -o %dest%
TOC of the extracted CD
Track | Start | Length | Start sector | End sector
---------------------------------------------------------
1 | 0:00.00 | 3:38.20 | 0 | 16369
2 | 3:38.20 | 4:01.16 | 16370 | 34460
3 | 7:39.36 | 3:30.23 | 34461 | 50233
4 | 11:09.59 | 3:48.69 | 50234 | 67402
5 | 14:58.53 | 4:21.53 | 67403 | 87030
6 | 19:20.31 | 3:29.42 | 87031 | 102747
7 | 22:49.73 | 4:59.27 | 102748 | 125199
8 | 27:49.25 | 3:41.01 | 125200 | 141775
9 | 31:30.26 | 3:53.33 | 141776 | 159283
10 | 35:23.59 | 3:51.72 | 159284 | 176680
11 | 39:15.56 | 4:32.11 | 176681 | 197091
Range status and errors
Selected range
Filename C:\Users\alexc\Desktop\(Latin, Alternative, Rock) 2018 Dorian - Justicia Universal\Dorian - Justicia Universal.wav
Peak level 100.0 %
Extraction speed 3.7 X
Range quality 100.0 %
Test CRC CC33768C
Copy CRC CC33768C
Copy OK
No errors occurred
AccurateRip summary
Track 1 not present in database
Track 2 not present in database
Track 3 not present in database
Track 4 not present in database
Track 5 not present in database
Track 6 not present in database
Track 7 not present in database
Track 8 not present in database
Track 9 not present in database
Track 10 not present in database
Track 11 not present in database
None of the tracks are present in the AccurateRip database
End of status report
---- CUETools DB Plugin V2.1.6
[CTDB TOCID: O.BtpWBLN4sSp9Bg8P8CrSnTTYg-] found
Submit result: O.BtpWBLN4sSp9Bg8P8CrSnTTYg- has been confirmed
Track | CTDB Status
1 | (4/4) Accurately ripped
2 | (4/4) Accurately ripped
3 | (4/4) Accurately ripped
4 | (4/4) Accurately ripped
5 | (4/4) Accurately ripped
6 | (4/4) Accurately ripped
7 | (4/4) Accurately ripped
8 | (4/4) Accurately ripped
9 | (4/4) Accurately ripped
10 | (4/4) Accurately ripped
11 | (4/4) Accurately ripped

Содержание индексной карты (.CUE)

REM GENRE Alternative
REM DATE 2018
REM DISCID 7C0A430B
REM COMMENT ExactAudioCopy v1.3
CATALOG M-5832-2018
PERFORMER "Dorian"
TITLE "Justicia Universal"
REM REPLAYGAIN_ALBUM_GAIN -9.35 dB
REM REPLAYGAIN_ALBUM_PEAK 1.000000
FILE "Dorian - Justicia Universal.flac" WAVE
TRACK 01 AUDIO
TITLE "Noches Blancas"
ISRC ES71G1826832
REM REPLAYGAIN_TRACK_GAIN -9.49 dB
REM REPLAYGAIN_TRACK_PEAK 0.999176
INDEX 01 00:00:00
TRACK 02 AUDIO
TITLE "Algunos Amigos"
ISRC ES71G1829159
REM REPLAYGAIN_TRACK_GAIN -9.86 dB
REM REPLAYGAIN_TRACK_PEAK 0.981232
INDEX 01 03:38:20
TRACK 03 AUDIO
TITLE "Duele (feat. León Larregui)"
ISRC ES71G1829160
REM REPLAYGAIN_TRACK_GAIN -11.29 dB
REM REPLAYGAIN_TRACK_PEAK 0.999084
INDEX 01 07:39:36
TRACK 04 AUDIO
TITLE "Justicia Universal"
ISRC ES71G1829161
REM REPLAYGAIN_TRACK_GAIN -9.54 dB
REM REPLAYGAIN_TRACK_PEAK 0.999084
INDEX 01 11:09:59
TRACK 05 AUDIO
TITLE "Vicios y Defectos (feat. Javiera Mena)"
ISRC ES71G1829162
REM REPLAYGAIN_TRACK_GAIN -8.84 dB
REM REPLAYGAIN_TRACK_PEAK 0.999146
INDEX 01 14:58:53
TRACK 06 AUDIO
TITLE "Llévame"
ISRC ES71G1829163
REM REPLAYGAIN_TRACK_GAIN -6.73 dB
REM REPLAYGAIN_TRACK_PEAK 0.999084
INDEX 01 19:20:31
TRACK 07 AUDIO
TITLE "La Isla"
ISRC ES71G1829164
REM REPLAYGAIN_TRACK_GAIN -8.19 dB
REM REPLAYGAIN_TRACK_PEAK 0.999084
INDEX 01 22:49:73
TRACK 08 AUDIO
TITLE "Buenas Intenciones (feat. Nita de Fuel Fandango)"
ISRC ES71G1829165
REM REPLAYGAIN_TRACK_GAIN -9.06 dB
REM REPLAYGAIN_TRACK_PEAK 0.999054
INDEX 01 27:49:25
TRACK 09 AUDIO
TITLE "Señales"
ISRC ES71G1829167
REM REPLAYGAIN_TRACK_GAIN -8.93 dB
REM REPLAYGAIN_TRACK_PEAK 0.999176
INDEX 01 31:30:26
TRACK 10 AUDIO
TITLE "Hasta Que Caiga el Sol"
ISRC ES71G1724902
REM REPLAYGAIN_TRACK_GAIN -11.32 dB
REM REPLAYGAIN_TRACK_PEAK 1.000000
INDEX 01 35:23:59
TRACK 11 AUDIO
TITLE "Cometas"
ISRC ES71G1829168
REM REPLAYGAIN_TRACK_GAIN -7.79 dB
REM REPLAYGAIN_TRACK_PEAK 0.999146
INDEX 01 39:15:56

Лог проверки качества

-----------------------
DON'T MODIFY THIS FILE
-----------------------
PERFORMER: auCDtect Task Manager, ver. 1.6.0 RC1 build 1.6.0.1
Copyright (c) 2008-2010 y-soft. All rights reserved
http://y-soft.org
ANALYZER: auCDtect: CD records authenticity detector, version 0.8.2
Copyright (c) 2004 Oleg Berngardt. All rights reserved.
Copyright (c) 2004 Alexander Djourik. All rights reserved.
FILE: Dorian - Justicia Universal.flac
Size: 323250803 Hash: 6E6BC55314497FFDC71A60FC7F60835E Accuracy: -m0
Conclusion: CDDA 100%
Signature: 5E9A58349DBC1B7197B5C02C67C75DE4FDDCB4FC

Скриншот спектра частот

[torrents24.ru].t86152.torrent 
Торрент: Зарегистрирован [ 2019-06-11 15:35 ] · D5B0F71F99FF9749F2E80452C69894A9B508F845

Скачать .torrent

Скачать

13 KB

Статус: проверено
Скачан: 0 раз
Размер: 308 MB
terms.php
[Профиль] [ЛС]
Показать сообщения:    
Ответить на тему

Текущее время: 26-Июн 08:51

Часовой пояс: UTC + 3



Вы не можете начинать темы
Вы не можете отвечать на сообщения
Вы не можете редактировать свои сообщения
Вы не можете удалять свои сообщения
Вы не можете голосовать в опросах
Вы не можете прикреплять файлы к сообщениям
Вы можете скачивать файлы

Интересное в сети