На рассвете / Серии: 1-2 из 2 (Алексей Мясников) [2018, мелодрама, WEBRip-AVC]

Ответить на тему
Статистика раздачи
Размер:  1,46 GB   |    Зарегистрирован:  14 дней   |    Скачан:  0 раз

Полного источника не было: Никогда

 
   
 
 
Автор Сообщение

АААааа ®

Пол: Не указан

Стаж: 1 год 3 месяца

Сообщений: 410

Создавать темы 11-Июн-2019 15:34

[Цитировать]

-На рассвете-- -Год выпуска: 2018
Производство: ООО «Доминика», Golden Key Ent
Жанр: мелодрама
Продолжительность: ~01:35:00
Субтитры: нет-Режиссёр: Алексей Мясников-В ролях: Анна Старшенбаум, Тимофей Каратаев, Вячеслав Крикунов, Александр Макогон, Игорь Филиппов, Мария Малиновская, Алексей Тихонов, Дарья Храмцова, Александр Хмельницкий, Максим Бобков, Маруся Пестунова, Андрей Гринев, Лина Весёлкина, Андрей Лёвин, Михаил Шамигулов, Виктор Власов, Анастасия Кильбург, Леонид Ардо, Альберт Бартош, Вера Александрова, Мария Букнис-Описание: В благополучной семье Виноградовых случается горе — глава семьи Роман погибает на охоте. А спустя некоторое время его дочь Елена узнает о любовной связи своей матери Ирины с партнером отца — Борисом. Устроив скандал своей матери, Лена не справляется с управлением автомобиля и попадает в аварию… Когда Лена приходит в себя, всем становится понятно, что из памяти девушки стерты несколько последних лет жизни. Она ничего не помнит ни про смерть отца, ни про предательство матери, вероятно, причастной к смерти главы семьи, а еще Лена забыла Сергея… за которого собиралась замуж.-Предыдущие и альтернативные раздачи-Реклама: Нет- - -Качество: WEBRip-AVC / WEBRip 1080p
Формат: MKV
Видео кодек: H.264
Аудио кодек: AC3-Видео: MPEG-4 AVC, 768x432 (16:9), 25.000 fps, ~903 kbps avg, 0.109 bit/pixel
Аудио: 48 kHz, AC3 Dolby Digital, 2/0 (L,R) ch, ~192 kbps avg-

MediaInfo

Код:Complete name : D:\Раздача\На рассвете (2018)\01 - На рассвете (2018) WEBRip-AVC_ivanes.mkv
Format : Matroska
Format version : Version 2
File size : 746 MiB
Duration : 1 h 35 min
Overall bit rate : 1 097 kb/s
Movie name : 01 - На рассвете (2018) WEBRip-AVC_ivanes
Encoded date : UTC 2019-06-10 15:28:11
Writing application : mkvmerge v4.4.0 ('Die Wiederkehr') сборка от Jan 3 2011 21:40:45
Writing library : libebml v1.0.0 + libmatroska v1.0.0
Cover : Yes
Attachments : cover.jpg
Video
ID : 1
Format : AVC
Format/Info : Advanced Video Codec
Format profile : High@L4.1
Format settings, CABAC : Yes
Format settings, RefFrames : 10 frames
Codec ID : V_MPEG4/ISO/AVC
Duration : 1 h 35 min
Bit rate : 903 kb/s
Width : 768 pixels
Height : 432 pixels
Display aspect ratio : 16:9
Frame rate mode : Constant
Frame rate : 25.000 FPS
Color space : YUV
Chroma subsampling : 4:2:0
Bit depth : 8 bits
Scan type : Progressive
Bits/(Pixel*Frame) : 0.109
Stream size : 600 MiB (81%)
Title : Rip by ivanes
Writing library : x264 core 157 r2969 d4099dd
Encoding settings : cabac=1 / ref=10 / deblock=1:-3:-3 / analyse=0x3:0x113 / me=umh / subme=8 / psy=1 / psy_rd=1.00:0.00 / mixed_ref=1 / me_range=32 / chroma_me=1 / trellis=2 / 8x8dct=1 / cqm=0 / deadzone=21,11 / fast_pskip=0 / chroma_qp_offset=-2 / threads=12 / lookahead_threads=3 / sliced_threads=0 / nr=0 / decimate=1 / interlaced=0 / bluray_compat=0 / constrained_intra=0 / bframes=10 / b_pyramid=2 / b_adapt=2 / b_bias=0 / direct=1 / weightb=1 / open_gop=0 / weightp=2 / keyint=250 / keyint_min=25 / scenecut=40 / intra_refresh=0 / rc_lookahead=60 / rc=2pass / mbtree=0 / bitrate=903 / ratetol=1.0 / qcomp=0.60 / qpmin=0 / qpmax=69 / qpstep=4 / cplxblur=20.0 / qblur=0.5 / vbv_maxrate=50000 / vbv_bufsize=62500 / nal_hrd=none / filler=0 / ip_ratio=1.40 / pb_ratio=1.30 / aq=1:1.00
Default : Yes
Forced : No
Statistics Tags Issue : mkvmerge v10.0.0 ('To Drown In You') 64bit 2019-06-10 15:26:41 / mkvmerge v4.4.0 ('Die Wiederkehr') сборка от Jan 3 2011 21:40:45 2019-06-10 15:28:11
FromStats_BitRate : 902814
FromStats_Duration : 01:35:05.520000000
FromStats_FrameCount : 142638
FromStats_StreamSize : 643878396
Audio
ID : 2
Format : AC-3
Format/Info : Audio Coding 3
Format settings, Endianness : Big
Codec ID : A_AC3
Duration : 1 h 35 min
Bit rate mode : Constant
Bit rate : 192 kb/s
Channel(s) : 2 channels
Channel positions : Front: L R
Sampling rate : 44.1 kHz
Frame rate : 28.711 FPS (1536 SPF)
Bit depth : 16 bits
Compression mode : Lossy
Stream size : 131 MiB (18%)
Language : Russian
Service kind : Complete Main
Default : Yes
Forced : No

Скриншоты

[torrents24.ru].t86151.torrent 
Торрент: Зарегистрирован [ 2019-06-11 15:35 ] · B82B6C35CC313C5118FD3978DD36FBF22B788BCE

Скачать .torrent

Скачать

15 KB

Статус: проверено
Скачан: 0 раз
Размер: 1,46 GB
terms.php
[Профиль] [ЛС]
Показать сообщения:    
Ответить на тему

Текущее время: 26-Июн 08:58

Часовой пояс: UTC + 3



Вы не можете начинать темы
Вы не можете отвечать на сообщения
Вы не можете редактировать свои сообщения
Вы не можете удалять свои сообщения
Вы не можете голосовать в опросах
Вы не можете прикреплять файлы к сообщениям
Вы можете скачивать файлы

Интересное в сети