На Париж (Сергей Саркисов) [2018, история, приключения, WEB-DLRip]

Ответить на тему
Статистика раздачи
Размер:  750 MB   |    Зарегистрирован:  14 дней   |    Скачан:  0 раз

Полного источника не было: Никогда

 
   
 
 
Автор Сообщение

Болт ®

Пол: Не указан

Стаж: 1 год 4 месяца

Сообщений: 154

Создавать темы 11-Июн-2019 15:34

[Цитировать]

На Париж
Жанр: история, приключения
Год выпуска: 2018
Продолжительность: 01:35:18
Режиссёр: Сергей Саркисов
В ролях: Дмитрий Певцов, Сергей Маковецкий, Рената Литвинова, Евгений Стычкин, Фёдор Добронравов, Максим Важов, Торнике Квитатиани, Игорь Золотовицкий, Кирилл Зайцев, Александр Рапопорт

Описание: История советских офицеров, плечом к плечу прошедших войну и решивших отпраздновать Великую Победу в Париже. Друзья, выдержавшие страшный путь войны, доходят до самого Берлина и берут курс на новую жизнь — на любовь, захватывающие приключения и город мечты Париж.

Кинопоиск
Sample
Качество видео: WEB-DLRip
Формат видео: AVI
Видео: 688x288 (2.39:1), 23.976 fps, XviD build 73 ~962 kbps avg, 0.20 bit/pixel
Аудио: 48 kHz, MPEG Layer 3, 2 ch, ~128.00 kbps avg

MediaInfo

General
Complete name : D:\На Париж 2018 WEB-DLRip.avi
Format : AVI
Format/Info : Audio Video Interleave
File size : 750 MiB
Duration : 1 h 35 min
Overall bit rate : 1 100 kb/s
Writing application : VirtualDubMod 1.5.10.3 | www.virtualdub-fr.org || (build 2550/release)
Writing library : VirtualDubMod build 2550/release
Video
ID : 0
Format : MPEG-4 Visual
Format profile : Advanced Simple@L5
Format settings : BVOP1
Format settings, BVOP : 1
Format settings, QPel : No
Format settings, GMC : No warppoints
Format settings, Matrix : Default (MPEG)
Codec ID : XVID
Codec ID/Hint : XviD
Duration : 1 h 35 min
Bit rate : 963 kb/s
Width : 688 pixels
Height : 288 pixels
Display aspect ratio : 2.40:1
Frame rate : 23.976 (24000/1001) FPS
Color space : YUV
Chroma subsampling : 4:2:0
Bit depth : 8 bits
Scan type : Progressive
Compression mode : Lossy
Bits/(Pixel*Frame) : 0.203
Stream size : 656 MiB (88%)
Writing library : XviD 73
Audio
ID : 1
Format : MPEG Audio
Format version : Version 1
Format profile : Layer 3
Codec ID : 55
Codec ID/Hint : MP3
Duration : 1 h 35 min
Bit rate mode : Constant
Bit rate : 128 kb/s
Channel(s) : 2 channels
Sampling rate : 48.0 kHz
Frame rate : 41.667 FPS (1152 SPF)
Compression mode : Lossy
Stream size : 87.3 MiB (12%)
Alignment : Aligned on interleaves
Interleave, duration : 42 ms (1.00 video frame)
Interleave, preload duratio : 504 ms
Writing library : LAME3.99r
Encoding settings : -m s -V 4 -q 2 -lowpass 17 -b 128

Скриншоты



[torrents24.ru].t86131.torrent 
Торрент: Зарегистрирован [ 2019-06-11 15:35 ] · E3692D2FE6AF86254E7D6A7991DA56F5113AB162

Скачать .torrent

Скачать

15 KB

Статус: проверено
Скачан: 0 раз
Размер: 750 MB
terms.php
[Профиль] [ЛС]
Показать сообщения:    
Ответить на тему

Текущее время: 26-Июн 08:53

Часовой пояс: UTC + 3



Вы не можете начинать темы
Вы не можете отвечать на сообщения
Вы не можете редактировать свои сообщения
Вы не можете удалять свои сообщения
Вы не можете голосовать в опросах
Вы не можете прикреплять файлы к сообщениям
Вы можете скачивать файлы

Интересное в сети