Любовь по обмену / Tara Road (Гиллис Маккиннон / Gillies MacKinnon) [2005, Ирландия, драма, DVDRemux] MVO + Original (Eng) + Sub (eng)

Ответить на тему
Статистика раздачи
Размер:  3,56 GB   |    Зарегистрирован:  14 дней   |    Скачан:  0 раз

Полного источника не было: Никогда

 
   
 
 
Автор Сообщение

Ведьмочка ®

Пол: Не указан

Стаж: 1 год 4 месяца

Сообщений: 117

Создавать темы 11-Июн-2019 15:34

[Цитировать]

Любовь по обмену
Tara Road
Страна: Ирландия
Жанр: драма
Год выпуска: 1995
Продолжительность: 01:40:34
Перевод: профессиональный (многоголосый, закадровый) (с канала ТВ Центр)
Оригинальная аудиодорожка: английская
Субтитры: английские, португальские, испанские-Режиссёр: Гиллис Маккиннон / Gillies MacKinnon
В ролях: Айэйн Глен, Энди МакДауэлл, Оливия Уильямс, Стивен Ри, Бренда Фрикер, Жан-Марк Барр, Сара Болджер, Алан Девлин, Джиа Френсис, Брона Галлахер-Описание: Двух героинь этой картины одновременно постигло несчастье. В Америке у Мэрилин Уайн прямо во время празднования дня рождения погиб единственный сын. За океаном, в Ирландии, супруг очаровательной Рии Линч объявил, что уходит от неё к беременной любовнице. Отчаявшиеся женщины решают на время обменяться домами, чтобы заново найти себя и обрести утраченную любовь…- -Качество: DVDRemux
Формат: MKV
Видео: 720x480 (4:3) @ 640x480, MPEG-2 Video / 4416 kbps / 29,970 fps /
Аудио 1: AC3, 48 kHz, 2ch, 192.00 kbps: [RUS]
Аудио 2: AC3, 48 kHz, 6ch, 448.00 kbps: [ENG]
Разбивка на главы: да
Формат субтитров: srt и оригинал

DVDInfo

Title:
Size: 5.46 Gb ( 5 723 172,00 KBytes ) - DVD-9
Enabled regions: 1, 2, 3, 4, 5, 6, 7, 8
VTS_01 :
Play Length: 01:40:28
Video: NTSC 4:3 (720x480) VBR
Audio:
English, AC3, 2/0 (L,R) ch, 448 kbps, Delay 0 mSec
English, AC3, 3/2 (L,C,R,SL,SR)+LFE ch, 448 kbps, Delay 0 mSec
Portugues, AC3, 2/0 (L,R) ch, 448 kbps, Delay 0 mSec
Portugues, AC3, 3/2 (L,C,R,SL,SR)+LFE ch, 448 kbps, Delay 0 mSec
Subtitles:
Portugues
English
Espanol
VTS_02 :
Play Length: 00:02:05+{00:02:05}
Video: NTSC 4:3 (720x480) VBR
Audio:
English (Dolby AC3, 2 ch)
Subtitles:
Portugues
VTS_03 :
Play Length: 00:02:17+{00:02:17}
Video: NTSC 4:3 (720x480) VBR
Audio:
English (Dolby AC3, 2 ch)
Subtitles:
Portugues
VTS_04 :
Play Length: 00:05:14+{00:05:14}
Video: NTSC 4:3 (720x480) VBR
Audio:
English (Dolby AC3, 2 ch)
Subtitles:
Portugues
VTS_05 :
Play Length: 00:02:22+{00:02:22}
Video: NTSC 16:9 (720x480) VBR, Auto Letterboxed
Audio:
English (Dolby AC3, 2 ch)
Subtitles:
Portugues
VTS_06 :
Play Length: 00:02:45+{00:02:45}
Video: NTSC 4:3 (720x480) VBR
Audio:
English (Dolby AC3, 2 ch)
Subtitles:
Portugues
VTS_07 :
Play Length: 00:01:09+{00:01:09}
Video: NTSC 4:3 (720x480) VBR
Audio:
English (Dolby AC3, 2 ch)
Subtitles:
Portugues
VTS_08 :
Play Length: 00:03:41+{00:03:41}
Video: NTSC 4:3 (720x480) VBR
Audio:
English (Dolby AC3, 2 ch)
Subtitles:
Portugues
* Menus Information *
VIDEO_TS Menu
Video:
NTSC 4:3 (720x480) VBR
English Language Unit :
Title Menu
VTS_01 Menu
Video:
NTSC 4:3 (720x480) VBR
Audio:
Not specified (Dolby AC3, 2 ch)
English Language Unit :
Root Menu
VTS_02 Menu
Video:
NTSC 4:3 (720x480) VBR
English Language Unit :
Root Menu
VTS_03 Menu
Video:
NTSC 4:3 (720x480) VBR
English Language Unit :
Root Menu
VTS_04 Menu
Video:
NTSC 4:3 (720x480) VBR
English Language Unit :
Root Menu
VTS_05 Menu
Video:
NTSC 4:3 (720x480) VBR
English Language Unit :
Root Menu
VTS_06 Menu
Video:
NTSC 4:3 (720x480) VBR
English Language Unit :
Root Menu
VTS_07 Menu
Video:
NTSC 4:3 (720x480) VBR
English Language Unit :
Root Menu
VTS_08 Menu
Video:
NTSC 4:3 (720x480) VBR
English Language Unit :
Root Menu

MediaInfo

Общее
Уникальный идентификатор : 290783982715267599766281116288106619604 (0xDAC2F53D41B01094B8CD2B8B75C3E2D4)
Полное имя : D:\Ремуксы\[AORE] Cult Films Remuxes\TARA_ROAD\Tara Road 2005.mkv
Формат : Matroska
Версия формата : Version 4
Размер файла : 3,56 Гбайт
Продолжительность : 1 ч. 40 м.
Режим общего битрейта : Переменный
Общий поток : 5066 Кбит/сек
Дата кодирования : UTC 2019-06-09 10:22:19
Программа кодирования : mkvmerge v33.1.0 ('Primrose') 64-bit
Библиотека кодирования : libebml v1.3.7 + libmatroska v1.5.0
Видео
Идентификатор : 1
Формат : MPEG Video
Версия формата : Version 2
Профиль формата : Main@Main
Настройки формата : CustomMatrix / BVOP
Параметр BVOP формата : Да
Параметр матрицы формата : Выборочная
Параметр GOP формата : M=3, N=15
Структура изображения : Frame
Идентификатор кодека : V_MPEG2
Идентификатор кодека/Информация : MPEG 1 or 2 Video
Продолжительность : 1 ч. 40 м.
Вид битрейта : Переменный
Битрейт : 4416 Кбит/сек
Максимальный битрейт : 8500 Кбит/сек
Ширина : 720 пикселей
Высота : 480 пикселей
Соотношение сторон : 4:3
Режим частоты кадров : Постоянный
Частота кадров : 29,970 (30000/1001) кадров/сек
Стандарт вещания : NTSC
Цветовое пространство : YUV
Субдискретизация насыщенности : 4:2:0
Битовая глубина : 8 бит
Тип развёртки : Чересстрочная
Порядок развёртки : Верхнее поле первое
Метод сжатия : С потерями
Бит/(Пиксели*Кадры) : 0.426
Временной код первого кадра : 00:59:59:15
Оригинал временного кода : Group of pictures header
GOP, открыто/закрыто : Закрыто
Размер потока : 3,10 Гбайт (87%)
Язык : English
Default : Нет
Forced : Нет
Аудио #1
Идентификатор : 2
Формат : AC-3
Формат/Информация : Audio Coding 3
Коммерческое название : Dolby Digital
Идентификатор кодека : A_AC3
Продолжительность : 1 ч. 40 м.
Вид битрейта : Постоянный
Битрейт : 192 Кбит/сек
Каналы : 2 канала
Channel layout : L R
Частота : 48,0 КГц
Частота кадров : 31,250 кадров/сек (1536 SPF)
Битовая глубина : 16 бит
Метод сжатия : С потерями
Размер потока : 138 Мбайт (4%)
Заголовок : MVO
Язык : Russian
ServiceKind/String : Complete Main
Default : Да
Forced : Нет
Аудио #2
Идентификатор : 3
Формат : AC-3
Формат/Информация : Audio Coding 3
Коммерческое название : Dolby Digital
Идентификатор кодека : A_AC3
Продолжительность : 1 ч. 40 м.
Вид битрейта : Постоянный
Битрейт : 448 Кбит/сек
Каналы : 6 каналов
Channel layout : L R C LFE Ls Rs
Частота : 48,0 КГц
Частота кадров : 31,250 кадров/сек (1536 SPF)
Битовая глубина : 16 бит
Метод сжатия : С потерями
Размер потока : 322 Мбайт (9%)
Заголовок : Surround 5.1
Язык : English
ServiceKind/String : Complete Main
Default : Нет
Forced : Нет
Текст #1
Идентификатор : 4
Формат : UTF-8
Идентификатор кодека : S_TEXT/UTF8
Идентификатор кодека/Информация : UTF-8 Plain Text
Продолжительность : 1 ч. 39 м.
Битрейт : 59 бит/сек
ElementCount : 1300
Размер потока : 43,4 Кбайт (0%)
Язык : English
Default : Нет
Forced : Нет
Текст #2
Идентификатор : 5
Формат : VobSub
Режим смешивания : zlib
Идентификатор кодека : S_VOBSUB
Идентификатор кодека/Информация : Picture based subtitle format used on DVDs
Продолжительность : 1 ч. 39 м.
Битрейт : 5659 бит/сек
ElementCount : 1300
Размер потока : 4,03 Мбайт (0%)
Язык : English
Default : Нет
Forced : Нет
Текст #3
Идентификатор : 6
Формат : VobSub
Режим смешивания : zlib
Идентификатор кодека : S_VOBSUB
Идентификатор кодека/Информация : Picture based subtitle format used on DVDs
Продолжительность : 1 ч. 39 м.
Битрейт : 5675 бит/сек
ElementCount : 1305
Размер потока : 4,04 Мбайт (0%)
Язык : Portuguese
Default : Нет
Forced : Нет
Текст #4
Идентификатор : 7
Формат : VobSub
Режим смешивания : zlib
Идентификатор кодека : S_VOBSUB
Идентификатор кодека/Информация : Picture based subtitle format used on DVDs
Продолжительность : 1 ч. 39 м.
Битрейт : 5629 бит/сек
ElementCount : 1300
Размер потока : 4,01 Мбайт (0%)
Язык : Spanish
Default : Нет
Forced : Нет
Меню
00:00:00.066 : en:Chapter 01
00:04:49.856 : en:Chapter 02
00:13:56.402 : en:Chapter 03
00:22:35.921 : en:Chapter 04
00:33:48.092 : en:Chapter 05
00:43:17.661 : en:Chapter 06
00:52:40.223 : en:Chapter 07
01:01:50.273 : en:Chapter 08
01:11:26.849 : en:Chapter 09
01:21:13.435 : en:Chapter 10
01:28:44.385 : en:Chapter 11
01:37:01.382 : en:Chapter 12
01:40:33.594 : en:Chapter 13

Скриншоты

Скриншоты меню


DVD-Rip (576x320) Всем мои раздачам нужны сиды, так что не уходите с раздачи!A CultFilms™ Remux
[torrents24.ru].t86125.torrent 
Торрент: Зарегистрирован [ 2019-06-11 15:35 ] · DE1143536B28851EE21D0AA1783557A89BD434FD

Скачать .torrent

Скачать

18 KB

Статус: проверено
Скачан: 0 раз
Размер: 3,56 GB
terms.php
[Профиль] [ЛС]
Показать сообщения:    
Ответить на тему

Текущее время: 26-Июн 09:38

Часовой пояс: UTC + 3



Вы не можете начинать темы
Вы не можете отвечать на сообщения
Вы не можете редактировать свои сообщения
Вы не можете удалять свои сообщения
Вы не можете голосовать в опросах
Вы не можете прикреплять файлы к сообщениям
Вы можете скачивать файлы

Интересное в сети