(Шансон) VA - Дорожный шансон 2-3, 5-6, 8-11 (8 CD) - 2002-2012, FLAC (image+.cue), lossless

Ответить на тему
Статистика раздачи
Размер:  3,87 GB   |    Зарегистрирован:  16 дней   |    Скачан:  0 раз

Полного источника не было: Никогда

 
   
 
 
Автор Сообщение

Камилла ®

Пол: Не указан

Стаж: 1 год 3 месяца

Сообщений: 63

Создавать темы 09-Июн-2019 15:30

[Цитировать]

Various Artists - Дорожный шансон 2-3, 5-6, 8-11 Жанр: ШансонСтрана-производитель дисков: Россия
Год издания дисков: 2002-2012
Аудио кодек: FLAC (*.flac) / MP3
Тип рипа: image+.cue
Битрейт аудио: lossless
Источник (релизер): Диски из личной коллекции
Наличие сканов в содержимом раздачи: 600 dpi, JPG

2002 - Дорожный шансон 2

Дорожный шансон 2 --Страна-производитель диска: Россия
Год издания диска: 2002
Издатель (лейбл): Зодиак Рекордс
Номер по каталогу: CD ZO 04-02
Продолжительность: 1:03:22
--Треклист:
01. Таня Тишинская - Дорожная
02. Виктор Петлюра - Последний рейс
03. Виктор Королёв - Дым кольцами
04. Дмитрий Полторацкий - Спасатель
05. Слава Исетский младший - Американская невеста
06. Трофим - Босота...
07. Владимир Черняков - Такси
08. Сергей Ноябрьский - Шоферская
09. Андрей Азовский - Дорожная
10. Слава Бобков - На дороге беспредел
11. Жека - Гололёд
12. Александр Шипицын - Трое
13. Андрей Климнюк - Автозак
14. Олег - Кадиллак цвета кокаина
15. Елена Решетняк - О далёком городе ночном
16. Гриша Заречный - На посошок

--

Лог создания рипа

Exact Audio Copy V1.0 beta 1 from 15. November 2010
EAC extraction logfile from 2. October 2014, 2:55
Various / Дорожный шансон 2
Used drive : PLEXTOR DVDR PX-760A Adapter: 4 ID: 2
Read mode : Secure
Utilize accurate stream : Yes
Defeat audio cache : Yes
Make use of C2 pointers : No
Read offset correction : 30
Overread into Lead-In and Lead-Out : No
Fill up missing offset samples with silence : Yes
Delete leading and trailing silent blocks : No
Null samples used in CRC calculations : Yes
Used interface : Native Win32 interface for Win NT & 2000
Used output format : Internal WAV Routines
Sample format : 44.100 Hz; 16 Bit; Stereo
TOC of the extracted CD
Track | Start | Length | Start sector | End sector
---------------------------------------------------------
1 | 0:00.00 | 3:52.43 | 0 | 17442
2 | 3:52.43 | 4:07.09 | 17443 | 35976
3 | 7:59.52 | 4:33.70 | 35977 | 56521
4 | 12:33.47 | 5:24.56 | 56522 | 80877
5 | 17:58.28 | 4:38.42 | 80878 | 101769
6 | 22:36.70 | 3:58.05 | 101770 | 119624
7 | 26:35.00 | 3:35.35 | 119625 | 135784
8 | 30:10.35 | 2:44.72 | 135785 | 148156
9 | 32:55.32 | 4:25.00 | 148157 | 168031
10 | 37:20.32 | 3:24.54 | 168032 | 183385
11 | 40:45.11 | 4:02.57 | 183386 | 201592
12 | 44:47.68 | 4:26.61 | 201593 | 221603
13 | 49:14.54 | 3:45.52 | 221604 | 238530
14 | 53:00.31 | 4:02.18 | 238531 | 256698
15 | 57:02.49 | 4:22.64 | 256699 | 276412
16 | 61:25.38 | 3:46.17 | 276413 | 293379
Range status and errors
Selected range
Filename M:\FLAC (bruk67)\Chanson\VA - Дорожный шансон (FLAC)\2002 - Дорожный шансон 2\Various - Дорожный шансон 2.wav
Peak level 96.3 %
Extraction speed 0.1 X
Range quality 99.9 %
Test CRC 82B36BCA
Copy CRC 82B36BCA
Copy OK
No errors occurred
AccurateRip summary
Track 1 not present in database
Track 2 not present in database
Track 3 not present in database
Track 4 not present in database
Track 5 not present in database
Track 6 not present in database
Track 7 not present in database
Track 8 not present in database
Track 9 not present in database
Track 10 not present in database
Track 11 not present in database
Track 12 not present in database
Track 13 not present in database
Track 14 not present in database
Track 15 not present in database
Track 16 not present in database
None of the tracks are present in the AccurateRip database
End of status report
==== Log checksum 5DD76D074B6413D2961A1BF13AEF92A4A3E2CC742174A64118A1B1412B484E84 ====

Скриншот спектра частот

2002 - Дорожный шансон 3

Дорожный шансон 3 --Страна-производитель диска: Россия
Год издания диска: 2002
Издатель (лейбл): Зодиак Рекордс
Номер по каталогу: CD ZO 20-02
Продолжительность: 1:03:35
--Треклист:
01. Таня Тишинская и Александр Дюмин - Май
02. Гарик Кричевский - Черешня
03. Слава Исетский младший - Марго
04. Виктор Петлюра - Ты его ждала
05. Андрей Васильев - А я еду за туманом
06. АВТОритет - Не плачь, родная мать
07. Игорь Зайц - Лизка Огурцова
08. Александр Кирьянов - Ну что, братан
09. Татьяна Треф - Любовница
10. Михаил Михайлов - Милая, родная
11. ОЛЕГ - Лондон
12. Марк Винокуров - Остановочка
13. Ира Зима - Сестрёнки
14. Виктор Петлюра - Круглолица
15. Игорь Слуцкий - Казачья
16. Владислав Туманов - Дорогой длинною

--

Лог создания рипа

Exact Audio Copy V1.3 from 2. September 2016
EAC extraction logfile from 8. March 2018, 14:48
Various Artists / Дорожный шансон 3
Used drive : TEAC CD-W58E Adapter: 1 ID: 1
Read mode : Secure
Utilize accurate stream : Yes
Defeat audio cache : Yes
Make use of C2 pointers : No
Read offset correction : 685
Overread into Lead-In and Lead-Out : No
Fill up missing offset samples with silence : Yes
Delete leading and trailing silent blocks : No
Null samples used in CRC calculations : Yes
Used interface : Native Win32 interface for Win NT & 2000
Used output format : Internal WAV Routines
Sample format : 44.100 Hz; 16 Bit; Stereo
TOC of the extracted CD
Track | Start | Length | Start sector | End sector
---------------------------------------------------------
1 | 0:00.00 | 3:02.71 | 0 | 13720
2 | 3:02.71 | 4:30.35 | 13721 | 34005
3 | 7:33.31 | 4:41.25 | 34006 | 55105
4 | 12:14.56 | 5:29.60 | 55106 | 79840
5 | 17:44.41 | 2:59.30 | 79841 | 93295
6 | 20:43.71 | 2:58.35 | 93296 | 106680
7 | 23:42.31 | 4:07.28 | 106681 | 125233
8 | 27:49.59 | 4:00.47 | 125234 | 143280
9 | 31:50.31 | 5:02.73 | 143281 | 166003
10 | 36:53.29 | 4:49.65 | 166004 | 187743
11 | 41:43.19 | 2:48.46 | 187744 | 200389
12 | 44:31.65 | 2:32.21 | 200390 | 211810
13 | 47:04.11 | 4:16.11 | 211811 | 231021
14 | 51:20.22 | 3:08.44 | 231022 | 245165
15 | 54:28.66 | 4:55.68 | 245166 | 267358
16 | 59:24.59 | 4:09.57 | 267359 | 286090
Range status and errors
Selected range
Filename M:\FLAC (bruk67)\Chanson\VA - Дорожный шансон (FLAC)\2002 - Дорожный шансон 3\Various Artists - Дорожный шансон 3.wav
Peak level 97.7 %
Extraction speed 4.0 X
Range quality 100.0 %
Test CRC 15A99143
Copy CRC 15A99143
Copy OK
No errors occurred
AccurateRip summary
Track 1 not present in database
Track 2 not present in database
Track 3 not present in database
Track 4 not present in database
Track 5 not present in database
Track 6 not present in database
Track 7 not present in database
Track 8 not present in database
Track 9 not present in database
Track 10 not present in database
Track 11 not present in database
Track 12 not present in database
Track 13 not present in database
Track 14 not present in database
Track 15 not present in database
Track 16 not present in database
None of the tracks are present in the AccurateRip database
End of status report
---- CUETools DB Plugin V2.1.6
[CTDB TOCID: PMLEUYRRAV4YHFuUgay1SGPfLRg-] disk not present in database
Submit result: PMLEUYRRAV4YHFuUgay1SGPfLRg- has been uploaded
==== Log checksum 3FF0413CDFAB54F61A5686AA290BB222A80575FF3944F27C4654FCD6ECFF88F4 ====

Скриншот спектра частот

2003 - Дорожный шансон 5

Дорожный шансон 5 --Страна-производитель диска: Россия
Год издания диска: 2003
Издатель (лейбл): Зодиак Рекордс
Номер по каталогу:
Продолжительность: 1:00:20
--Треклист:
01. Базар-Вокзал - Братан вернулся
02. Александр Дюмин - Пили водочку
03. Назар - Письмецо
04. Виктор Петлюра - Мадам
05. Алексей Князев - Саня
06. Татьяна Треф - Водитель такси
07. Андрей Школин - Твой танец
08. Абдула - Прощальный вальс
09. Пахом - К морю
10. Евгений Чужой - Брат
11. Иван Московский - Малява подельнику
12. Андрей Васильев - Колёсики
13. Слава Исетский - От бухты Цемесской
14. Дмитрий Полторацкий - Гитара
15. Ирина Ежова - Голуби
16. Виктор Тюменский - Суета

Лог создания рипа

Exact Audio Copy V1.1 from 23. June 2015
EAC extraction logfile from 23. May 2016, 21:53
Various Artists / Дорожный шансон 5
Used drive : PIONEER DVD-RW DVR-212 Adapter: 1 ID: 2
Read mode : Secure
Utilize accurate stream : Yes
Defeat audio cache : Yes
Make use of C2 pointers : No
Read offset correction : 48
Overread into Lead-In and Lead-Out : No
Fill up missing offset samples with silence : Yes
Delete leading and trailing silent blocks : No
Null samples used in CRC calculations : Yes
Used interface : Native Win32 interface for Win NT & 2000
Used output format : Internal WAV Routines
Sample format : 44.100 Hz; 16 Bit; Stereo
TOC of the extracted CD
Track | Start | Length | Start sector | End sector
---------------------------------------------------------
1 | 0:00.00 | 4:11.00 | 0 | 18824
2 | 4:11.00 | 3:25.08 | 18825 | 34207
3 | 7:36.08 | 3:22.00 | 34208 | 49357
4 | 10:58.08 | 3:54.37 | 49358 | 66944
5 | 14:52.45 | 3:01.37 | 66945 | 80556
6 | 17:54.07 | 3:51.01 | 80557 | 97882
7 | 21:45.08 | 5:24.74 | 97883 | 122256
8 | 27:10.07 | 3:04.07 | 122257 | 136063
9 | 30:14.14 | 4:15.63 | 136064 | 155251
10 | 34:30.02 | 4:08.38 | 155252 | 173889
11 | 38:38.40 | 3:12.12 | 173890 | 188301
12 | 41:50.52 | 3:57.61 | 188302 | 206137
13 | 45:48.38 | 3:54.38 | 206138 | 223725
14 | 49:43.01 | 3:49.37 | 223726 | 240937
15 | 53:32.38 | 3:48.37 | 240938 | 258074
16 | 57:21.00 | 3:03.73 | 258075 | 271872
Range status and errors
Selected range
Filename M:\FLAC (bruk67)\Chanson\VA - Дорожный шансон (FLAC)\2003 - Дорожный шансон 5\Various Artists - Дорожный шансон 5.wav
Peak level 100.0 %
Extraction speed 7.4 X
Range quality 100.0 %
Test CRC 5883A60B
Copy CRC 5883A60B
Copy OK
No errors occurred
AccurateRip summary
Track 1 not present in database
Track 2 not present in database
Track 3 not present in database
Track 4 not present in database
Track 5 not present in database
Track 6 not present in database
Track 7 not present in database
Track 8 not present in database
Track 9 not present in database
Track 10 not present in database
Track 11 not present in database
Track 12 not present in database
Track 13 not present in database
Track 14 not present in database
Track 15 not present in database
Track 16 not present in database
None of the tracks are present in the AccurateRip database
End of status report
---- CUETools DB Plugin V2.1.6
[CTDB TOCID: oXQagPpOjLOvsmrixo3Jfyi96dk-] disk not present in database
Submit result: oXQagPpOjLOvsmrixo3Jfyi96dk- has been uploaded
==== Log checksum B7D195B616D15CA712DD4461D89AD54534348B8035D349AE81CF8F96521B4217 ====

Скриншот спектра частот

2004 - Дорожный шансон 6

Дорожный шансон 6 --Страна-производитель диска: Россия
Год издания диска: 2004
Издатель (лейбл): Зодиак
Номер по каталогу: CD ZO 05-04
Продолжительность: 1:05:12
--Треклист:
01 Крестовый Туз - Попутчик
02 Иван Московский - Троечка
03 Андрей Косинский - Золотые купола
04 Виктор Петлюра - Русская душа
05 Виктор Тюменский - Северное сияние
06 Контра - Понты
07 Константин Беляев - По Якиманке
08 Ильдар Южный - Такси
09 Лесоповал - Недотроги
10 Владимир Шиленский - Снегопад
11 Алексей Князев - Тома
12 Гера Грач - С трапа я сойду
13 С. Питерская и Жека - Бродяга
14 Назар - На север
15 Ирина Ежова - Корабли
16 Сергей Грубов - Супер маз

--

Лог создания рипа

Exact Audio Copy V1.0 beta 3 from 29. August 2011
EAC extraction logfile from 27. June 2012, 16:57
Various Artists / Дорожный шансон 6
Used drive : PLEXTOR DVDR PX-760A Adapter: 4 ID: 2
Read mode : Secure
Utilize accurate stream : Yes
Defeat audio cache : Yes
Make use of C2 pointers : No
Read offset correction : 30
Overread into Lead-In and Lead-Out : Yes
Fill up missing offset samples with silence : Yes
Delete leading and trailing silent blocks : No
Null samples used in CRC calculations : Yes
Used interface : Installed external ASPI interface
Used output format : Internal WAV Routines
Sample format : 44.100 Hz; 16 Bit; Stereo
TOC of the extracted CD
Track | Start | Length | Start sector | End sector
---------------------------------------------------------
1 | 0:00.00 | 7:21.66 | 0 | 33140
2 | 7:21.66 | 3:28.04 | 33141 | 48744
3 | 10:49.70 | 3:29.72 | 48745 | 64491
4 | 14:19.67 | 3:28.64 | 64492 | 80155
5 | 17:48.56 | 4:16.08 | 80156 | 99363
6 | 22:04.64 | 3:22.11 | 99364 | 114524
7 | 25:27.00 | 2:27.36 | 114525 | 125585
8 | 27:54.36 | 3:50.29 | 125586 | 142864
9 | 31:44.65 | 3:00.03 | 142865 | 156367
10 | 34:44.68 | 4:17.73 | 156368 | 175715
11 | 39:02.66 | 3:55.02 | 175716 | 193342
12 | 42:57.68 | 4:13.73 | 193343 | 212390
13 | 47:11.66 | 4:51.72 | 212391 | 234287
14 | 52:03.63 | 3:18.53 | 234288 | 249190
15 | 55:22.41 | 3:38.23 | 249191 | 265563
16 | 59:00.64 | 4:21.69 | 265564 | 285207
Range status and errors
Selected range
Filename M:\FLAC (bruk67)\Chanson\VA - Дорожный шансон (FLAC)\2004 - Дорожный шансон - 6 выпуск\Various Artists - Дорожный шансон 6.wav
Peak level 100.0 %
Extraction speed 2.0 X
Range quality 100.0 %
Test CRC A4A59587
Copy CRC A4A59587
Copy OK
No errors occurred
AccurateRip summary
Track 1 not present in database
Track 2 not present in database
Track 3 not present in database
Track 4 not present in database
Track 5 not present in database
Track 6 not present in database
Track 7 not present in database
Track 8 not present in database
Track 9 not present in database
Track 10 not present in database
Track 11 not present in database
Track 12 not present in database
Track 13 not present in database
Track 14 not present in database
Track 15 not present in database
Track 16 not present in database
None of the tracks are present in the AccurateRip database
End of status report
---- CUETools DB Plugin V2.1.3
[CTDB TOCID: v3jIvTpRypwK1JF9I7n_R701z0k-] disk not present in database, Submit result: v3jIvTpRypwK1JF9I7n_R701z0k- has been uploaded
==== Log checksum C3E57E889E8DB264614221D71EC89CD6A1B9D0E102EB6CA00A56D1C6078745B0 ====

Скриншот спектра частот

2006 - Дорожный шансон 8

Дорожный шансон 8 --Страна-производитель диска: Россия
Год издания диска: 2006
Издатель (лейбл): Central Music/Зодиак
Номер по каталогу: CM CD 42/06
Продолжительность: 1:01:50
--Треклист:
01. Гриша Заречный - Тормоза придумали трусы
02. Виталь - Дорога безответная
03. Игорь Кабаргин - На тревожной версте
04. Группа Рулетка - Трасса
05. Борис Драгилев - Шоферская
06. Владимир Богун - Сибирский снег
07. Сергей Наговицын - Вольный ветер
08. Сергей Грубов - Дорожная
09. Пахом - К морю
10. Виктор Петлюра - Золотится серенький дымок
11. Андрей Таланов - Едем едем, едем...
12. Андрей Широков - Такси
13. Владимир Нежный - На Невском
14. Ира Ежова - Курносая
15. Большой - Девочка без паспорта
16. Павел Беккерман - Отказали тормоза
17. Вячеслав Быков - Я вернусь генералом

--

Лог создания рипа

Exact Audio Copy V1.3 from 2. September 2016
EAC extraction logfile from 5. June 2019, 22:03
Various Artists / Дорожный шансон 8
Used drive : PIONEER DVD-RW DVR-212 Adapter: 1 ID: 2
Read mode : Secure
Utilize accurate stream : Yes
Defeat audio cache : Yes
Make use of C2 pointers : No
Read offset correction : 48
Overread into Lead-In and Lead-Out : No
Fill up missing offset samples with silence : Yes
Delete leading and trailing silent blocks : No
Null samples used in CRC calculations : Yes
Used interface : Native Win32 interface for Win NT & 2000
Used output format : Internal WAV Routines
Sample format : 44.100 Hz; 16 Bit; Stereo
TOC of the extracted CD
Track | Start | Length | Start sector | End sector
---------------------------------------------------------
1 | 0:00.00 | 3:47.64 | 0 | 17088
2 | 3:47.64 | 3:31.59 | 17089 | 32972
3 | 7:19.48 | 4:07.37 | 32973 | 51534
4 | 11:27.10 | 5:03.64 | 51535 | 74323
5 | 16:30.74 | 3:21.00 | 74324 | 89398
6 | 19:51.74 | 2:52.69 | 89399 | 102367
7 | 22:44.68 | 3:46.38 | 102368 | 119355
8 | 26:31.31 | 5:18.69 | 119356 | 143274
9 | 31:50.25 | 4:24.63 | 143275 | 163137
10 | 36:15.13 | 4:29.08 | 163138 | 183320
11 | 40:44.21 | 3:23.29 | 183321 | 198574
12 | 44:07.50 | 3:00.45 | 198575 | 212119
13 | 47:08.20 | 2:51.44 | 212120 | 224988
14 | 49:59.64 | 2:16.12 | 224989 | 235200
15 | 52:16.01 | 3:46.28 | 235201 | 252178
16 | 56:02.29 | 2:58.20 | 252179 | 265548
17 | 59:00.49 | 2:58.44 | 265549 | 278942
Range status and errors
Selected range
Filename M:\FLAC (bruk67)\Chanson\VA - Дорожный шансон (FLAC)\2006 - Дорожный шансон 8\Various Artists - Дорожный шансон 8.wav
Peak level 100.0 %
Extraction speed 1.8 X
Range quality 100.0 %
Test CRC 452D80D1
Copy CRC 452D80D1
Copy OK
No errors occurred
AccurateRip summary
Track 1 not present in database
Track 2 not present in database
Track 3 not present in database
Track 4 not present in database
Track 5 not present in database
Track 6 not present in database
Track 7 not present in database
Track 8 not present in database
Track 9 not present in database
Track 10 not present in database
Track 11 not present in database
Track 12 not present in database
Track 13 not present in database
Track 14 not present in database
Track 15 not present in database
Track 16 not present in database
Track 17 not present in database
None of the tracks are present in the AccurateRip database
End of status report
---- CUETools DB Plugin V2.1.6
[CTDB TOCID: OCJoEU9jJl_WrC7Czvh8VWX7Tz4-] disk not present in database
Submit result: OCJoEU9jJl_WrC7Czvh8VWX7Tz4- has been uploaded
==== Log checksum 4E8E6FDB470BF44FA064AAB18991DBA37E400BE67F6333E6DAC037529E5FACEB ====

Скриншот спектра частот

2007 - Дорожный шансон 9

Дорожный шансон 9 --Страна-производитель диска: Россия
Год издания диска: 2007
Издатель (лейбл): Central Music/Зодиак
Номер по каталогу: CM CD 70/07
Продолжительность: 1:04:49
--Треклист:
01. Влад Ясень - Цвет металлики
02. Гриша Заречный - Центури
03. Олег Пахомов - Водила-брат
04. Марина Соболева, Саша Адмирал - Мурка-девочка классная!
05. Яша Боярский - Пьянота и "Тайота"
06. Егор Берест - По Воронцовке
07. Геннадий Норд - Рассвет
08. Анатолий Полотно - Прямо сейчас
09. Виталь - Девочки В подъезде
10. Ира Зима - Туманы-туманы
11. Георгий Лысенко - Три окошка
12. Борис Драгилев - В пробке
13. Большой - Коварный май
14. Женя Томилин - Я постоянно ухожу
15. Таня Треф - Эмигрантка
16. Павел Беккерман - Мэри
17. Виталий Волин - Домой
18. Юрий Карпенко - Золотая осень

--

Лог создания рипа

Exact Audio Copy V0.99 prebeta 5 from 4. May 2009
EAC extraction logfile from 30. May 2013, 3:56
Various / Дорожный шансон 9
Used drive : PIONEER DVD-RW DVR-212 Adapter: 7 ID: 0
Read mode : Secure
Utilize accurate stream : Yes
Defeat audio cache : Yes
Make use of C2 pointers : No
Read offset correction : 48
Overread into Lead-In and Lead-Out : No
Fill up missing offset samples with silence : Yes
Delete leading and trailing silent blocks : No
Null samples used in CRC calculations : Yes
Used interface : Installed external ASPI interface
Used output format : Internal WAV Routines
Sample format : 44.100 Hz; 16 Bit; Stereo
TOC of the extracted CD
Track | Start | Length | Start sector | End sector
---------------------------------------------------------
1 | 0:00.00 | 3:24.39 | 0 | 15338
2 | 3:24.39 | 3:36.24 | 15339 | 31562
3 | 7:00.63 | 3:20.30 | 31563 | 46592
4 | 10:21.18 | 3:08.12 | 46593 | 60704
5 | 13:29.30 | 3:03.64 | 60705 | 74493
6 | 16:33.19 | 3:35.11 | 74494 | 90629
7 | 20:08.30 | 2:35.73 | 90630 | 102327
8 | 22:44.28 | 5:01.05 | 102328 | 124907
9 | 27:45.33 | 3:49.00 | 124908 | 142082
10 | 31:34.33 | 3:33.51 | 142083 | 158108
11 | 35:08.09 | 3:30.58 | 158109 | 173916
12 | 38:38.67 | 3:30.26 | 173917 | 189692
13 | 42:09.18 | 3:40.43 | 189693 | 206235
14 | 45:49.61 | 3:47.34 | 206236 | 223294
15 | 49:37.20 | 3:32.12 | 223295 | 239206
16 | 53:09.32 | 3:13.33 | 239207 | 253714
17 | 56:22.65 | 3:10.49 | 253715 | 268013
18 | 59:33.39 | 5:22.13 | 268014 | 292176
Range status and errors
Selected range
Filename M:\FLAC (bruk67)\Chanson\VA - Дорожный шансон (FLAC)\2007 - Дорожный шансон - 9 выпуск\Various - Дорожный шансон 9.wav
Peak level 100.0 %
Range quality 100.0 %
Test CRC 790F73FA
Copy CRC 790F73FA
Copy OK
No errors occurred
AccurateRip summary
Track 1 not present in database
Track 2 not present in database
Track 3 not present in database
Track 4 not present in database
Track 5 not present in database
Track 6 not present in database
Track 7 not present in database
Track 8 not present in database
Track 9 not present in database
Track 10 not present in database
Track 11 not present in database
Track 12 not present in database
Track 13 not present in database
Track 14 not present in database
Track 15 not present in database
Track 16 not present in database
Track 17 not present in database
Track 18 not present in database
None of the tracks are present in the AccurateRip database
End of status report

Скриншот спектра частот

2010 - Дорожный шансон 10

Дорожный шансон 10 --Страна-производитель диска: Россия
Год издания диска: 2010
Издатель (лейбл): Central Music/Мистерия Звука
Номер по каталогу: CM CD 102/10
Продолжительность: 1:09:06
--Треклист:
01. Жека - Когда не нужно лишних слов
02. Сергей Сидель - Ты такая весенняя
03. Маша Вакс - Комарово
04. Анатолий Полотно - Карелия
05. Александр Иваненко - Облака
06. Григорий Заречный - Голуби над Ростовом
07. Гр. М. Круга «Попутчик» - По Дону батюшке
08. Александр Заколодний, Вадим Шашков - Новочеркасский хотунок
09. Сын Юриста feat Russian Walker - Финансовый удар
10. Михаил Грубов - Шереметьево-2
11. Группа «Ш.А.Л.А.» - Холодная Москва
12. Борис Шварцман - Пробочный кошмар
13. Валериан - Последняя электричка
14. Павел Беккерман - Поезд разлуки
15. Юрий Уральский - По форме тридцать шесть
16. Владимир Стольный - За окнами плацкартными
17. Влад Ясень - Дочка
18. Дмитрий Иванов - Дом родной

--

Лог создания рипа

Exact Audio Copy V1.0 beta 3 from 29. August 2011
EAC extraction logfile from 6. May 2012, 3:13
Various Artists / Дорожный шансон - 10 выпуск
Used drive : PIONEER DVD-RW DVR-212 Adapter: 8 ID: 0
Read mode : Secure
Utilize accurate stream : Yes
Defeat audio cache : Yes
Make use of C2 pointers : No
Read offset correction : 48
Overread into Lead-In and Lead-Out : No
Fill up missing offset samples with silence : Yes
Delete leading and trailing silent blocks : No
Null samples used in CRC calculations : Yes
Used interface : Installed external ASPI interface
Used output format : Internal WAV Routines
Sample format : 44.100 Hz; 16 Bit; Stereo
TOC of the extracted CD
Track | Start | Length | Start sector | End sector
---------------------------------------------------------
1 | 0:00.00 | 4:02.68 | 0 | 18217
2 | 4:02.68 | 3:57.18 | 18218 | 36010
3 | 8:00.11 | 3:22.41 | 36011 | 51201
4 | 11:22.52 | 4:39.40 | 51202 | 72166
5 | 16:02.17 | 3:45.54 | 72167 | 89095
6 | 19:47.71 | 3:39.20 | 89096 | 105540
7 | 23:27.16 | 4:13.21 | 105541 | 124536
8 | 27:40.37 | 3:04.73 | 124537 | 138409
9 | 30:45.35 | 3:39.65 | 138410 | 154899
10 | 34:25.25 | 4:14.53 | 154900 | 174002
11 | 38:40.03 | 3:59.24 | 174003 | 191951
12 | 42:39.27 | 3:37.24 | 191952 | 208250
13 | 46:16.51 | 4:03.44 | 208251 | 226519
14 | 50:20.20 | 3:29.37 | 226520 | 242231
15 | 53:49.57 | 4:07.33 | 242232 | 260789
16 | 57:57.15 | 3:41.74 | 260790 | 277438
17 | 61:39.14 | 3:19.01 | 277439 | 292364
18 | 64:58.15 | 4:08.03 | 292365 | 310967
Range status and errors
Selected range
Filename M:\FLAC (bruk67)\Chanson\VA - Дорожный шансон (FLAC)\2010 - Дорожный шансон - 10 выпуск\Various Artists - Дорожный шансон - 10 выпуск.wav
Peak level 96.6 %
Extraction speed 8.0 X
Range quality 100.0 %
Test CRC E446D586
Copy CRC E446D586
Copy OK
No errors occurred
AccurateRip summary
Track 1 not present in database
Track 2 not present in database
Track 3 not present in database
Track 4 not present in database
Track 5 not present in database
Track 6 not present in database
Track 7 not present in database
Track 8 not present in database
Track 9 not present in database
Track 10 not present in database
Track 11 not present in database
Track 12 not present in database
Track 13 not present in database
Track 14 not present in database
Track 15 not present in database
Track 16 not present in database
Track 17 not present in database
Track 18 not present in database
None of the tracks are present in the AccurateRip database
End of status report
---- CUETools DB Plugin V2.1.3
[CTDB TOCID: lWCq5nAVx9urhGFCxk4FRThCtd8-] disk not present in database, Submit result: lWCq5nAVx9urhGFCxk4FRThCtd8- has been uploaded
==== Log checksum 8A708F2951F7C0B327C23D810417DDB8AE9911A1456C800E42E927D8191FAF5E ====

Скриншот спектра частот

2012 - Дорожный шансон 11

Дорожный шансон 11 --Страна-производитель диска: Россия
Год издания диска: 2012
Издатель (лейбл): Central Music/Мистерия Звука
Номер по каталогу: CM CD 122/12
Продолжительность: 1:07:53
--Треклист:

01. Марина Александрова и Александр Домогаров - Твой рейс
02. Павел Беккерман - Благодарю
03. Александр Иваненко - Подснежники
04. Александр Черкасов - По обманчивому льду
05. Григорий Заречный - Попутный ветер
06. Сергей Сидель - Дальнобойная
07. Владимир Шиленский - Бомбовозы
08. гр. М. Круга «Попутчик» - Не завидуй ближнему
09. Ольгея - Оля, носишь ли кольцо?
10. Евгений «Жека» Григорьев - Дорога в никуда
11. Игорь Васильев - Серебро надежды
12. Юрий Уральский - Ты на перроне стояла
13. Мила Третьяк и гр. «Ш.А.Л.А.» - Изумруды
14. Влад Ясень - Бродяга
15. Маша Вакс - Душа бродячая
16. Влад Зерницкий - Визитная карточка
17. Игорь Кабаргин - Зелёный огонёк
18. Марина Александрова - Аэропорт

Лог создания рипа

Exact Audio Copy V1.0 beta 3 from 29. August 2011
EAC extraction logfile from 12. April 2012, 23:47
Various Artists / Дорожный шансон - 11 выпуск
Used drive : PIONEER DVD-RW DVR-212 Adapter: 8 ID: 0
Read mode : Secure
Utilize accurate stream : Yes
Defeat audio cache : Yes
Make use of C2 pointers : No
Read offset correction : 48
Overread into Lead-In and Lead-Out : No
Fill up missing offset samples with silence : Yes
Delete leading and trailing silent blocks : No
Null samples used in CRC calculations : Yes
Used interface : Installed external ASPI interface
Used output format : Internal WAV Routines
Sample format : 44.100 Hz; 16 Bit; Stereo
TOC of the extracted CD
Track | Start | Length | Start sector | End sector
---------------------------------------------------------
1 | 0:00.00 | 4:18.04 | 0 | 19353
2 | 4:18.04 | 4:18.04 | 19354 | 38707
3 | 8:36.08 | 4:02.72 | 38708 | 56929
4 | 12:39.05 | 3:59.73 | 56930 | 74927
5 | 16:39.03 | 2:30.55 | 74928 | 86232
6 | 19:09.58 | 4:02.37 | 86233 | 104419
7 | 23:12.20 | 3:03.24 | 104420 | 118168
8 | 26:15.44 | 3:32.18 | 118169 | 134086
9 | 29:47.62 | 3:02.07 | 134087 | 147743
10 | 32:49.69 | 4:06.30 | 147744 | 166223
11 | 36:56.24 | 3:16.35 | 166224 | 180958
12 | 40:12.59 | 4:26.44 | 180959 | 200952
13 | 44:39.28 | 3:27.56 | 200953 | 216533
14 | 48:07.09 | 4:43.00 | 216534 | 237758
15 | 52:50.09 | 3:36.08 | 237759 | 253966
16 | 56:26.17 | 3:34.41 | 253967 | 270057
17 | 60:00.58 | 4:07.45 | 270058 | 288627
18 | 64:08.28 | 3:44.32 | 288628 | 305459
Range status and errors
Selected range
Filename M:\FLAC (bruk67)\Chanson\VA - Дорожный шансон - 11 выпуск (2012) FLAC\Various Artists - Дорожный шансон - 11 выпуск.wav
Peak level 98.9 %
Extraction speed 7.5 X
Range quality 100.0 %
Test CRC 78A9D172
Copy CRC 78A9D172
Copy OK
No errors occurred
AccurateRip summary
Track 1 not present in database
Track 2 not present in database
Track 3 not present in database
Track 4 not present in database
Track 5 not present in database
Track 6 not present in database
Track 7 not present in database
Track 8 not present in database
Track 9 not present in database
Track 10 not present in database
Track 11 not present in database
Track 12 not present in database
Track 13 not present in database
Track 14 not present in database
Track 15 not present in database
Track 16 not present in database
Track 17 not present in database
Track 18 not present in database
None of the tracks are present in the AccurateRip database
End of status report
---- CUETools DB Plugin V2.1.3
[CTDB TOCID: OalSvH2GLqjNa5.5uADm2HXpv7k-] disk not present in database, Submit result: OalSvH2GLqjNa5.5uADm2HXpv7k- has been uploaded
==== Log checksum 49D89F7D56DEE956231AEB3293DD6DEB967A289DAFBA85C213E23FB0FB13C2AE ====

Скриншот спектра частот

Об альбоме (сборнике)

ЗВЁЗДЫ КИНО И ЭСТРАДЫ В ОДНОМ СБОРНИКЕ!
На сей раз самое видное место в сборнике в числе других путешествий занимают воздушные. Причем, судя по названию дебюта Владимира Шиленского «Бомбовозы», не только гражданской авиации. Титульные артисты этого выпуска - замечательная певица и просто красавица Марина Александрова, а также известнейший и талантливейший актер Александр Домогаров, который исполняет с Мариной дуэт «Твой рейс». Сольная работа Марины «Аэропорт», закрывающая сборник, также очень интересна. С ней связана целая история. Изначально она создавалась, как гимн Новосибирского аэропорта «Толмачево», а со временем стала одной из самых успешных и любимых публикой в репертуаре певицы.
Итак, первым делом, как поется в песне - самолеты, ну, а что потом? А потом - все виды дорожного транспорта, а также путешествия пешком. И что ни песня, то отдельная история, а где-то и сюрприз. Так, например, патриарх шоферской тематики (куда ж без нее) Григорий Заречный представляет абсолютную новинку «Попутный ветер» - быстрый и уверенный хит, напоминающий его ранние легендарные работы. И пусть талантливые дебюты певицы Ольгеи и Игоря Васильева, например, больше напоминают не традиционный шансон, а, соответственно, народную обработку и рок - тем эти новинки интереснее.
От издателя
Продолжение следует...
[torrents24.ru].t85928.torrent 
Торрент: Зарегистрирован [ 2019-06-09 15:30 ] · D3FD877E77E1217F7CB07B0487908FD5486CF73C

Скачать .torrent

Скачать

28 KB

Статус: проверено
Скачан: 0 раз
Размер: 3,87 GB
terms.php
[Профиль] [ЛС]
Показать сообщения:    
Ответить на тему

Текущее время: 26-Июн 09:16

Часовой пояс: UTC + 3



Вы не можете начинать темы
Вы не можете отвечать на сообщения
Вы не можете редактировать свои сообщения
Вы не можете удалять свои сообщения
Вы не можете голосовать в опросах
Вы не можете прикреплять файлы к сообщениям
Вы можете скачивать файлы

Интересное в сети