(Arrangement, Chiptune, C64) Matt Gray - Re Formation - 2017, FLAC (tracks+.cue) lossless

Ответить на тему
Статистика раздачи
Размер:  1,68 GB   |    Зарегистрирован:  20 дней   |    Скачан:  0 раз

Полного источника не было: Никогда

 
   
 
 
Автор Сообщение

Alino4ka ®

Пол: Не указан

Стаж: 1 год 4 месяца

Сообщений: 13

Создавать темы 05-Июн-2019 15:29

[Цитировать]

Matt Gray / Re Formation Жанр: Arrangement, Chiptune, C64
Страна-производитель диска: UK
Год издания диска: 2017
Издатель (лейбл): Not On Label (Matt Gray Self-released)
Страна: UK
Аудиокодек: FLAC
Тип рипа: tracks+.cue
Битрейт аудио: lossless
Продолжительность: 3:52:56
Источник: RED (hans)
Наличие сканов в содержимом раздачи: нет
Discogs.com
CD 101 - Central Park Main Theme (From Last Ninja 2) (6:19)
02 - The Desert Main Theme (From Tusker) (5:19)
03 - Bangkok Knights Loading Theme (5:16)
04 - Dominator Hidden Theme (3:56)
05 - Driller Main Theme (10:30)
06 - The Village Main Theme (From Tusker) (5:06)
07 - The Sewers Loading Theme (From Last Ninja 2) (6:01)
08 - Hunter's Moon Loading Theme (5:04)
09 - Dominator Loading Theme (3:46)
10 - The Mansion Main Theme (From Last Ninja 2) (8:14)
11 - Central Park Loading Theme (From Last Ninja 2) (6:19)
12 - Hunter's Moon Main Theme (5:48)
13 - Pro BMX Main Themes (4:34)
14 - Hyperion 2 Main Theme (3:20)

Лог

Exact Audio Copy V1.1 from 23. June 2015
EAC extraction logfile from 18. March 2019, 17:27
Matt Gray / Reformation
Used drive : HL-DT-STDVDRAM GH22NS70 Adapter: 1 ID: 0
Read mode : Secure
Utilize accurate stream : Yes
Defeat audio cache : Yes
Make use of C2 pointers : No
Read offset correction : 667
Overread into Lead-In and Lead-Out : No
Fill up missing offset samples with silence : Yes
Delete leading and trailing silent blocks : No
Null samples used in CRC calculations : Yes
Used interface : Native Win32 interface for Win NT & 2000
Gap handling : Appended to previous track
Used output format : User Defined Encoder
Selected bitrate : 1024 kBit/s
Quality : High
Add ID3 tag : No
Command line compressor : C:\Program Files (x86)\Exact Audio Copy\Flac\flac.exe
Additional command line options : -8 -V -T "artist=%artist%" -T "title=%title%" -T "album=%albumtitle%" -T "date=%year%" -T "tracknumber=%tracknr%" -T "genre=%genre%" %source%
TOC of the extracted CD
Track | Start | Length | Start sector | End sector
---------------------------------------------------------
1 | 0:00.00 | 6:18.45 | 0 | 28394
2 | 6:18.45 | 5:18.51 | 28395 | 52295
3 | 11:37.21 | 5:16.10 | 52296 | 76005
4 | 16:53.31 | 3:55.51 | 76006 | 93681
5 | 20:49.07 | 10:30.20 | 93682 | 140951
6 | 31:19.27 | 5:06.01 | 140952 | 163902
7 | 36:25.28 | 6:00.58 | 163903 | 190960
8 | 42:26.11 | 5:03.51 | 190961 | 213736
9 | 47:29.62 | 3:45.47 | 213737 | 230658
10 | 51:15.34 | 8:14.06 | 230659 | 267714
11 | 59:29.40 | 6:19.21 | 267715 | 296160
12 | 65:48.61 | 5:48.06 | 296161 | 322266
13 | 71:36.67 | 4:34.15 | 322267 | 342831
14 | 76:11.07 | 3:19.54 | 342832 | 357810
Track 1
Filename C:\ripping\01 - Central Park Main Theme (From Last Ninja 2).wav
Pre-gap length 0:00:02.00
Peak level 98.1 %
Extraction speed 1.3 X
Track quality 100.0 %
Test CRC A0436A7C
Copy CRC A0436A7C
Track not present in AccurateRip database
Copy OK
Track 2
Filename C:\ripping\02 - The Desert Main Theme (From Tusker).wav
Pre-gap length 0:00:01.56
Peak level 95.3 %
Extraction speed 1.4 X
Track quality 100.0 %
Test CRC E08AAD69
Copy CRC E08AAD69
Track not present in AccurateRip database
Copy OK
Track 3
Filename C:\ripping\03 - Bangkok Knights Loading Theme.wav
Pre-gap length 0:00:00.65
Peak level 97.0 %
Extraction speed 1.5 X
Track quality 100.0 %
Test CRC 9446ADE2
Copy CRC 9446ADE2
Track not present in AccurateRip database
Copy OK
Track 4
Filename C:\ripping\04 - Dominator Hidden Theme.wav
Pre-gap length 0:00:01.56
Peak level 99.0 %
Extraction speed 1.4 X
Track quality 99.9 %
Test CRC 26AC5816
Copy CRC 26AC5816
Track not present in AccurateRip database
Copy OK
Track 5
Filename C:\ripping\05 - Driller Main Theme.wav
Pre-gap length 0:00:01.56
Peak level 97.7 %
Extraction speed 1.9 X
Track quality 100.0 %
Test CRC 013ABE38
Copy CRC 013ABE38
Track not present in AccurateRip database
Copy OK
Track 6
Filename C:\ripping\06 - The Village Main Theme (From Tusker).wav
Pre-gap length 0:00:01.56
Peak level 99.6 %
Extraction speed 1.9 X
Track quality 100.0 %
Test CRC EB6B77B5
Copy CRC EB6B77B5
Track not present in AccurateRip database
Copy OK
Track 7
Filename C:\ripping\07 - The Sewers Loading Theme (From Last Ninja 2).wav
Pre-gap length 0:00:01.56
Peak level 100.0 %
Extraction speed 2.0 X
Track quality 100.0 %
Test CRC B4FBD056
Copy CRC B4FBD056
Track not present in AccurateRip database
Copy OK
Track 8
Filename C:\ripping\08 - Hunter's Moon Loading Theme.wav
Pre-gap length 0:00:01.56
Peak level 95.6 %
Extraction speed 2.1 X
Track quality 100.0 %
Test CRC 1369E51A
Copy CRC 1369E51A
Track not present in AccurateRip database
Copy OK
Track 9
Filename C:\ripping\09 - Dominator Loading Theme.wav
Pre-gap length 0:00:01.56
Peak level 97.4 %
Extraction speed 2.1 X
Track quality 100.0 %
Test CRC BA8B6B00
Copy CRC BA8B6B00
Track not present in AccurateRip database
Copy OK
Track 10
Filename C:\ripping\10 - The Mansion Main Theme (From Last Ninja 2).wav
Pre-gap length 0:00:01.56
Peak level 99.0 %
Extraction speed 2.4 X
Track quality 100.0 %
Test CRC 832EDE1B
Copy CRC 832EDE1B
Track not present in AccurateRip database
Copy OK
Track 11
Filename C:\ripping\11 - Central Park Loading Theme (From Last Ninja 2).wav
Pre-gap length 0:00:01.56
Peak level 100.0 %
Extraction speed 2.5 X
Track quality 100.0 %
Test CRC 50A6F7F0
Copy CRC 50A6F7F0
Track not present in AccurateRip database
Copy OK
Track 12
Filename C:\ripping\12 - Hunter's Moon Main Theme.wav
Pre-gap length 0:00:01.56
Peak level 88.2 %
Extraction speed 2.5 X
Track quality 100.0 %
Test CRC 462A70A0
Copy CRC 462A70A0
Track not present in AccurateRip database
Copy OK
Track 13
Filename C:\ripping\13 - Pro BMX Main Themes.wav
Pre-gap length 0:00:01.56
Peak level 96.7 %
Extraction speed 2.2 X
Track quality 99.9 %
Test CRC 9B8A640D
Copy CRC 9B8A640D
Track not present in AccurateRip database
Copy OK
Track 14
Filename C:\ripping\14 - Hyperion 2 Main Theme.wav
Pre-gap length 0:00:01.56
Peak level 100.0 %
Extraction speed 2.5 X
Track quality 100.0 %
Test CRC C0964C83
Copy CRC C0964C83
Track not present in AccurateRip database
Copy OK
None of the tracks are present in the AccurateRip database
No errors occurred
End of status report
---- CUETools DB Plugin V2.1.6
[CTDB TOCID: Jb5rBxkVLWXtceSTpAf8rSHHeu4-] found
Submit result: Jb5rBxkVLWXtceSTpAf8rSHHeu4- has been confirmed
Track | CTDB Status
1 | (3/3) Accurately ripped
2 | (3/3) Accurately ripped
3 | (3/3) Accurately ripped
4 | (3/3) Accurately ripped
5 | (3/3) Accurately ripped
6 | (3/3) Accurately ripped
7 | (3/3) Accurately ripped
8 | (3/3) Accurately ripped
9 | (3/3) Accurately ripped
10 | (3/3) Accurately ripped
11 | (3/3) Accurately ripped
12 | (3/3) Accurately ripped
13 | (3/3) Accurately ripped
14 | (3/3) Accurately ripped
==== Log checksum D38444A632CC2AAD951F094F4D3203FAB53CC8C1D4D55E50A2CCA480B09FBA37 ====

.cue

REM DATE 2017
REM DISCID D812A20E
REM COMMENT "ExactAudioCopy v1.1"
PERFORMER "Matt Gray"
TITLE "Reformation"
FILE "01 - Central Park Main Theme (From Last Ninja 2).wav" WAVE
TRACK 01 AUDIO
TITLE "Central Park Main Theme (From Last Ninja 2)"
PERFORMER "Matt Gray"
ISRC UKKZW1600006
INDEX 01 00:00:00
TRACK 02 AUDIO
TITLE "The Desert Main Theme (From Tusker)"
PERFORMER "Matt Gray"
ISRC UKKZW1600040
INDEX 00 06:16:64
FILE "02 - The Desert Main Theme (From Tusker).wav" WAVE
INDEX 01 00:00:00
TRACK 03 AUDIO
TITLE "Bangkok Knights Loading Theme"
PERFORMER "Matt Gray"
ISRC UKKZW1600041
INDEX 00 05:17:61
FILE "03 - Bangkok Knights Loading Theme.wav" WAVE
INDEX 01 00:00:00
TRACK 04 AUDIO
TITLE "Dominator Hidden Theme"
PERFORMER "Matt Gray"
ISRC UKKZW1600009
INDEX 00 05:14:29
FILE "04 - Dominator Hidden Theme.wav" WAVE
INDEX 01 00:00:00
TRACK 05 AUDIO
TITLE "Driller Main Theme"
PERFORMER "Matt Gray"
ISRC UKKZW1600011
INDEX 00 03:53:70
FILE "05 - Driller Main Theme.wav" WAVE
INDEX 01 00:00:00
TRACK 06 AUDIO
TITLE "The Village Main Theme (From Tusker)"
PERFORMER "Matt Gray"
ISRC UKKZW1600007
INDEX 00 10:28:39
FILE "06 - The Village Main Theme (From Tusker).wav" WAVE
INDEX 01 00:00:00
TRACK 07 AUDIO
TITLE "The Sewers Loading Theme (From Last Ninja 2)"
PERFORMER "Matt Gray"
ISRC UKKZW1600001
INDEX 00 05:04:20
FILE "07 - The Sewers Loading Theme (From Last Ninja 2).wav" WAVE
INDEX 01 00:00:00
TRACK 08 AUDIO
TITLE "Hunter's Moon Loading Theme"
PERFORMER "Matt Gray"
ISRC UKKZW1600008
INDEX 00 05:59:02
FILE "08 - Hunter's Moon Loading Theme.wav" WAVE
INDEX 01 00:00:00
TRACK 09 AUDIO
TITLE "Dominator Loading Theme"
PERFORMER "Matt Gray"
ISRC UKKZW1600042
INDEX 00 05:01:70
FILE "09 - Dominator Loading Theme.wav" WAVE
INDEX 01 00:00:00
TRACK 10 AUDIO
TITLE "The Mansion Main Theme (From Last Ninja 2)"
PERFORMER "Matt Gray"
ISRC UKKZW1600032
INDEX 00 03:43:66
FILE "10 - The Mansion Main Theme (From Last Ninja 2).wav" WAVE
INDEX 01 00:00:00
TRACK 11 AUDIO
TITLE "Central Park Loading Theme (From Last Ninja 2)"
PERFORMER "Matt Gray"
ISRC UKKZW1600010
INDEX 00 08:12:25
FILE "11 - Central Park Loading Theme (From Last Ninja 2).wav" WAVE
INDEX 01 00:00:00
TRACK 12 AUDIO
TITLE "Hunter's Moon Main Theme"
PERFORMER "Matt Gray"
ISRC UKKZW1600043
INDEX 00 06:17:40
FILE "12 - Hunter's Moon Main Theme.wav" WAVE
INDEX 01 00:00:00
TRACK 13 AUDIO
TITLE "Pro BMX Main Themes"
PERFORMER "Matt Gray"
ISRC UKKZW1600012
INDEX 00 05:46:25
FILE "13 - Pro BMX Main Themes.wav" WAVE
INDEX 01 00:00:00
TRACK 14 AUDIO
TITLE "Hyperion 2 Main Theme"
PERFORMER "Matt Gray"
ISRC UKKZW1600044
INDEX 00 04:32:34
FILE "14 - Hyperion 2 Main Theme.wav" WAVE
INDEX 01 00:00:00

CD 2

01 - The Street Loading Theme (From Last Ninja 2) (5:23)
02 - Vendetta Intro Theme (6:33)
03 - The Sewers Main Theme (From Last Ninja 2) (8:27)
04 - Quedex Loading Theme (4:04)
05 - Motocross Main Theme (4:30)
06 - Deliverance Stormlord 2 Title Theme (4:41)
07 - The Final Battle Theme (From Last Ninja 2) (6:02)
08 - Deliverance Stormlord 2 In Game Level 2 Theme (4:21)
09 - Maze Mania Main Theme (3:24)
10 - Deliverance Stormlord 2 In Game Level 3 Theme (5:33)
11 - Quedex Title Theme (3:31)
12 - Tusker Loading Theme (6:39)
13 - Dominator Title Theme (6:10)
14 - Treasure Island Dizzy In Game Theme (3:19)
15 - KGB Superspy Title Theme (4:23)

Лог

Exact Audio Copy V1.1 from 23. June 2015
EAC extraction logfile from 18. March 2019, 18:56
Matt Gray / Reformation
Used drive : HL-DT-STDVDRAM GH22NS70 Adapter: 1 ID: 0
Read mode : Secure
Utilize accurate stream : Yes
Defeat audio cache : Yes
Make use of C2 pointers : No
Read offset correction : 667
Overread into Lead-In and Lead-Out : No
Fill up missing offset samples with silence : Yes
Delete leading and trailing silent blocks : No
Null samples used in CRC calculations : Yes
Used interface : Native Win32 interface for Win NT & 2000
Gap handling : Appended to previous track
Used output format : User Defined Encoder
Selected bitrate : 1024 kBit/s
Quality : High
Add ID3 tag : No
Command line compressor : C:\Program Files (x86)\Exact Audio Copy\Flac\flac.exe
Additional command line options : -8 -V -T "artist=%artist%" -T "title=%title%" -T "album=%albumtitle%" -T "date=%year%" -T "tracknumber=%tracknr%" -T "genre=%genre%" %source%
TOC of the extracted CD
Track | Start | Length | Start sector | End sector
---------------------------------------------------------
1 | 0:00.00 | 5:23.04 | 0 | 24228
2 | 5:23.04 | 6:33.37 | 24229 | 53740
3 | 11:56.41 | 8:27.14 | 53741 | 91779
4 | 20:23.55 | 4:03.60 | 91780 | 110064
5 | 24:27.40 | 4:30.00 | 110065 | 130314
6 | 28:57.40 | 4:40.42 | 130315 | 151356
7 | 33:38.07 | 6:01.65 | 151357 | 178496
8 | 39:39.72 | 4:21.33 | 178497 | 198104
9 | 44:01.30 | 3:23.44 | 198105 | 213373
10 | 47:24.74 | 5:32.74 | 213374 | 238347
11 | 52:57.73 | 3:31.24 | 238348 | 254196
12 | 56:29.22 | 6:39.22 | 254197 | 284143
13 | 63:08.44 | 6:09.69 | 284144 | 311887
14 | 69:18.38 | 3:19.36 | 311888 | 326848
15 | 72:37.74 | 4:23.03 | 326849 | 346576
Track 1
Filename C:\ripping\01 - The Street Loading Theme (From Last Ninja 2).wav
Pre-gap length 0:00:02.00
Peak level 100.0 %
Extraction speed 1.1 X
Track quality 99.9 %
Test CRC 1869D53E
Copy CRC 1869D53E
Track not present in AccurateRip database
Copy OK
Track 2
Filename C:\ripping\02 - Vendetta Intro Theme.wav
Pre-gap length 0:00:01.07
Peak level 96.3 %
Extraction speed 1.4 X
Track quality 100.0 %
Test CRC 10E90FFC
Copy CRC 10E90FFC
Track not present in AccurateRip database
Copy OK
Track 3
Filename C:\ripping\03 - The Sewers Main Theme (From Last Ninja 2).wav
Pre-gap length 0:00:01.08
Peak level 100.0 %
Extraction speed 1.6 X
Track quality 100.0 %
Test CRC 148DC500
Copy CRC 148DC500
Track not present in AccurateRip database
Copy OK
Track 4
Filename C:\ripping\04 - Quedex Loading Theme.wav
Pre-gap length 0:00:01.56
Peak level 97.9 %
Extraction speed 1.6 X
Track quality 100.0 %
Test CRC 26A6F3F1
Copy CRC 26A6F3F1
Track not present in AccurateRip database
Copy OK
Track 5
Filename C:\ripping\05 - Motocross Main Theme.wav
Pre-gap length 0:00:00.72
Peak level 100.0 %
Extraction speed 1.8 X
Track quality 100.0 %
Test CRC FE89CDC3
Copy CRC FE89CDC3
Track not present in AccurateRip database
Copy OK
Track 6
Filename C:\ripping\06 - Deliverance Stormlord 2 Title Theme.wav
Pre-gap length 0:00:01.38
Peak level 100.0 %
Extraction speed 1.8 X
Track quality 100.0 %
Test CRC 18E5FFB4
Copy CRC 18E5FFB4
Track not present in AccurateRip database
Copy OK
Track 7
Filename C:\ripping\07 - The Final Battle Theme (From Last Ninja 2).wav
Pre-gap length 0:00:00.62
Peak level 98.4 %
Extraction speed 1.8 X
Track quality 99.9 %
Test CRC 21208786
Copy CRC 21208786
Track not present in AccurateRip database
Copy OK
Track 8
Filename C:\ripping\08 - Deliverance Stormlord 2 In Game Level 2 Theme.wav
Pre-gap length 0:00:00.49
Peak level 100.0 %
Extraction speed 2.0 X
Track quality 100.0 %
Test CRC BF526F37
Copy CRC BF526F37
Track not present in AccurateRip database
Copy OK
Track 9
Filename C:\ripping\09 - Maze Mania Main Theme.wav
Pre-gap length 0:00:00.62
Peak level 100.0 %
Extraction speed 2.0 X
Track quality 100.0 %
Test CRC 3DE9B3A9
Copy CRC 3DE9B3A9
Track not present in AccurateRip database
Copy OK
Track 10
Filename C:\ripping\10 - Deliverance Stormlord 2 In Game Level 3 Theme.wav
Pre-gap length 0:00:00.69
Peak level 98.1 %
Extraction speed 2.0 X
Track quality 99.9 %
Test CRC 07575648
Copy CRC 07575648
Track not present in AccurateRip database
Copy OK
Track 11
Filename C:\ripping\11 - Quedex Title Theme.wav
Peak level 100.0 %
Extraction speed 2.1 X
Track quality 100.0 %
Test CRC 7E6487D5
Copy CRC 7E6487D5
Track not present in AccurateRip database
Copy OK
Track 12
Filename C:\ripping\12 - Tusker Loading Theme.wav
Pre-gap length 0:00:00.36
Peak level 100.0 %
Extraction speed 2.4 X
Track quality 100.0 %
Test CRC 569DA4C3
Copy CRC 569DA4C3
Track not present in AccurateRip database
Copy OK
Track 13
Filename C:\ripping\13 - Dominator Title Theme.wav
Pre-gap length 0:00:00.57
Peak level 97.4 %
Extraction speed 2.5 X
Track quality 100.0 %
Test CRC 46F16544
Copy CRC 46F16544
Track not present in AccurateRip database
Copy OK
Track 14
Filename C:\ripping\14 - Treasure Island Dizzy In Game Theme.wav
Peak level 96.9 %
Extraction speed 2.3 X
Track quality 100.0 %
Test CRC 75888C4E
Copy CRC 75888C4E
Track not present in AccurateRip database
Copy OK
Track 15
Filename C:\ripping\15 - KGB Superspy Title Theme.wav
Peak level 97.4 %
Extraction speed 2.5 X
Track quality 100.0 %
Test CRC 633D265F
Copy CRC 633D265F
Track not present in AccurateRip database
Copy OK
None of the tracks are present in the AccurateRip database
No errors occurred
End of status report
---- CUETools DB Plugin V2.1.6
[CTDB TOCID: 1eeqzy1fFbGh0u.OO44o_4.5o3U-] found
Submit result: 1eeqzy1fFbGh0u.OO44o_4.5o3U- has been confirmed
Track | CTDB Status
1 | (3/3) Accurately ripped
2 | (3/3) Accurately ripped
3 | (3/3) Accurately ripped
4 | (3/3) Accurately ripped
5 | (3/3) Accurately ripped
6 | (3/3) Accurately ripped
7 | (3/3) Accurately ripped
8 | (3/3) Accurately ripped
9 | (3/3) Accurately ripped
10 | (3/3) Accurately ripped
11 | (3/3) Accurately ripped
12 | (3/3) Accurately ripped
13 | (3/3) Accurately ripped
14 | (3/3) Accurately ripped
15 | (3/3) Accurately ripped
==== Log checksum 8BED2F37774A70BE7ABB8D0FA13D246ABAAB75BF827A7576628820A024A090E3 ====

.cue

REM DATE 2017
REM DISCID DA120D0F
REM COMMENT "ExactAudioCopy v1.1"
PERFORMER "Matt Gray"
TITLE "Reformation"
FILE "01 - The Street Loading Theme (From Last Ninja 2).wav" WAVE
TRACK 01 AUDIO
TITLE "The Street Loading Theme (From Last Ninja 2)"
PERFORMER "Matt Gray"
ISRC UKKZW1600021
INDEX 01 00:00:00
TRACK 02 AUDIO
TITLE "Vendetta Intro Theme"
PERFORMER "Matt Gray"
ISRC UKKZW1600045
INDEX 00 05:21:72
FILE "02 - Vendetta Intro Theme.wav" WAVE
INDEX 01 00:00:00
TRACK 03 AUDIO
TITLE "The Sewers Main Theme (From Last Ninja 2)"
PERFORMER "Matt Gray"
ISRC UKKZW1600013
INDEX 00 06:32:29
FILE "03 - The Sewers Main Theme (From Last Ninja 2).wav" WAVE
INDEX 01 00:00:00
TRACK 04 AUDIO
TITLE "Quedex Loading Theme"
PERFORMER "Matt Gray"
ISRC UKKZW1600046
INDEX 00 08:25:33
FILE "04 - Quedex Loading Theme.wav" WAVE
INDEX 01 00:00:00
TRACK 05 AUDIO
TITLE "Motocross Main Theme"
PERFORMER "Matt Gray"
ISRC UKKZW1600047
INDEX 00 04:02:63
FILE "05 - Motocross Main Theme.wav" WAVE
INDEX 01 00:00:00
TRACK 06 AUDIO
TITLE "Deliverance Stormlord 2 Title Theme"
PERFORMER "Matt Gray"
ISRC UKKZW1600048
INDEX 00 04:28:37
FILE "06 - Deliverance Stormlord 2 Title Theme.wav" WAVE
INDEX 01 00:00:00
TRACK 07 AUDIO
TITLE "The Final Battle Theme (From Last Ninja 2)"
PERFORMER "Matt Gray"
ISRC UKKZW1600002
INDEX 00 04:39:55
FILE "07 - The Final Battle Theme (From Last Ninja 2).wav" WAVE
INDEX 01 00:00:00
TRACK 08 AUDIO
TITLE "Deliverance Stormlord 2 In Game Level 2 Theme"
PERFORMER "Matt Gray"
ISRC UKKZW1600049
INDEX 00 06:01:16
FILE "08 - Deliverance Stormlord 2 In Game Level 2 Theme.wav" WAVE
INDEX 01 00:00:00
TRACK 09 AUDIO
TITLE "Maze Mania Main Theme"
PERFORMER "Matt Gray"
ISRC UKKZW1600050
INDEX 00 04:20:46
FILE "09 - Maze Mania Main Theme.wav" WAVE
INDEX 01 00:00:00
TRACK 10 AUDIO
TITLE "Deliverance Stormlord 2 In Game Level 3 Theme"
PERFORMER "Matt Gray"
ISRC UKKZW1600005
INDEX 00 03:22:50
FILE "10 - Deliverance Stormlord 2 In Game Level 3 Theme.wav" WAVE
INDEX 01 00:00:00
FILE "11 - Quedex Title Theme.wav" WAVE
TRACK 11 AUDIO
TITLE "Quedex Title Theme"
PERFORMER "Matt Gray"
INDEX 01 00:00:00
TRACK 12 AUDIO
TITLE "Tusker Loading Theme"
PERFORMER "Matt Gray"
ISRC UKKZW1600051
INDEX 00 03:30:63
FILE "12 - Tusker Loading Theme.wav" WAVE
INDEX 01 00:00:00
TRACK 13 AUDIO
TITLE "Dominator Title Theme"
PERFORMER "Matt Gray"
ISRC UKKZW1600052
INDEX 00 06:38:40
FILE "13 - Dominator Title Theme.wav" WAVE
INDEX 01 00:00:00
FILE "14 - Treasure Island Dizzy In Game Theme.wav" WAVE
TRACK 14 AUDIO
TITLE "Treasure Island Dizzy In Game Theme"
PERFORMER "Matt Gray"
ISRC UKKZW1600053
INDEX 01 00:00:00
FILE "15 - KGB Superspy Title Theme.wav" WAVE
TRACK 15 AUDIO
TITLE "KGB Superspy Title Theme"
PERFORMER "Matt Gray"
ISRC UKKZW1600054
INDEX 01 00:00:00

CD 3

01 - The Temple Main Theme (From Tusker) (6:13)
02 - Rambo First Blood Part 2 Loading Theme (4:04)
03 - Arkanoid Title Theme (4:08)
04 - Green Beret Title Theme (3:20)
05 - Knucklebusters Main Theme (16:49)
06 - Phantoms Of The Asteroid Main Theme (4:57)
07 - Shades (5:32)
08 - Arcade Classics Main Theme (7:11)
09 - Mega Apocalypse Main Theme (7:58)
10 - W.A.R Main Theme (10:02)
11 - Thalamusik Sanxion Loading Theme (6:10)

Лог

Exact Audio Copy V1.1 from 23. June 2015
EAC extraction logfile from 18. March 2019, 20:22
Matt Gray / Reformation
Used drive : HL-DT-STDVDRAM GH22NS70 Adapter: 1 ID: 0
Read mode : Secure
Utilize accurate stream : Yes
Defeat audio cache : Yes
Make use of C2 pointers : No
Read offset correction : 667
Overread into Lead-In and Lead-Out : No
Fill up missing offset samples with silence : Yes
Delete leading and trailing silent blocks : No
Null samples used in CRC calculations : Yes
Used interface : Native Win32 interface for Win NT & 2000
Gap handling : Appended to previous track
Used output format : User Defined Encoder
Selected bitrate : 1024 kBit/s
Quality : High
Add ID3 tag : No
Command line compressor : C:\Program Files (x86)\Exact Audio Copy\Flac\flac.exe
Additional command line options : -8 -V -T "artist=%artist%" -T "title=%title%" -T "album=%albumtitle%" -T "date=%year%" -T "tracknumber=%tracknr%" -T "genre=%genre%" %source%
TOC of the extracted CD
Track | Start | Length | Start sector | End sector
---------------------------------------------------------
1 | 0:00.00 | 6:13.15 | 0 | 27989
2 | 6:13.15 | 4:03.50 | 27990 | 46264
3 | 10:16.65 | 4:08.12 | 46265 | 64876
4 | 14:25.02 | 3:20.25 | 64877 | 79901
5 | 17:45.27 | 16:48.69 | 79902 | 155570
6 | 34:34.21 | 4:57.11 | 155571 | 177856
7 | 39:31.32 | 5:32.00 | 177857 | 202756
8 | 45:03.32 | 7:11.10 | 202757 | 235091
9 | 52:14.42 | 7:58.16 | 235092 | 270957
10 | 60:12.58 | 10:01.49 | 270958 | 316081
11 | 70:14.32 | 6:09.50 | 316082 | 343806
Track 1
Filename C:\ripping\01 - The Temple Main Theme (From Tusker).wav
Pre-gap length 0:00:02.00
Peak level 100.0 %
Extraction speed 1.2 X
Track quality 100.0 %
Test CRC A3F8AA53
Copy CRC A3F8AA53
Track not present in AccurateRip database
Copy OK
Track 2
Filename C:\ripping\02 - Rambo First Blood Part 2 Loading Theme.wav
Peak level 100.0 %
Extraction speed 1.1 X
Track quality 99.9 %
Test CRC 519400CC
Copy CRC 519400CC
Track not present in AccurateRip database
Copy OK
Track 3
Filename C:\ripping\03 - Arkanoid Title Theme.wav
Peak level 98.8 %
Extraction speed 1.4 X
Track quality 100.0 %
Test CRC D9CDD64A
Copy CRC D9CDD64A
Track not present in AccurateRip database
Copy OK
Track 4
Filename C:\ripping\04 - Green Beret Title Theme.wav
Peak level 98.1 %
Extraction speed 1.4 X
Track quality 100.0 %
Test CRC 11E42083
Copy CRC 11E42083
Track not present in AccurateRip database
Copy OK
Track 5
Filename C:\ripping\05 - Knucklebusters Main Theme.wav
Peak level 97.4 %
Extraction speed 1.8 X
Track quality 99.9 %
Test CRC 5A92DF63
Copy CRC 5A92DF63
Track not present in AccurateRip database
Copy OK
Track 6
Filename C:\ripping\06 - Phantoms Of The Asteroid Main Theme.wav
Peak level 98.7 %
Extraction speed 1.7 X
Track quality 99.9 %
Test CRC 463AEC64
Copy CRC 463AEC64
Track not present in AccurateRip database
Copy OK
Track 7
Filename C:\ripping\07 - Shades.wav
Peak level 97.7 %
Extraction speed 1.9 X
Track quality 99.9 %
Test CRC F022FD03
Copy CRC F022FD03
Track not present in AccurateRip database
Copy OK
Track 8
Filename C:\ripping\08 - Arcade Classics Main Theme.wav
Peak level 94.8 %
Extraction speed 2.2 X
Track quality 100.0 %
Test CRC E8C1DCFE
Copy CRC E8C1DCFE
Track not present in AccurateRip database
Copy OK
Track 9
Filename C:\ripping\09 - Mega Apocalypse Main Theme.wav
Peak level 97.7 %
Extraction speed 2.4 X
Track quality 100.0 %
Test CRC C60E3C03
Copy CRC C60E3C03
Track not present in AccurateRip database
Copy OK
Track 10
Filename C:\ripping\10 - W.A.R Main Theme.wav
Peak level 97.7 %
Extraction speed 2.5 X
Track quality 100.0 %
Test CRC 307BF4E6
Copy CRC 307BF4E6
Track not present in AccurateRip database
Copy OK
Track 11
Filename C:\ripping\11 - Thalamusik Sanxion Loading Theme.wav
Peak level 99.7 %
Extraction speed 2.6 X
Track quality 100.0 %
Test CRC 16DA4B92
Copy CRC 16DA4B92
Track not present in AccurateRip database
Copy OK
None of the tracks are present in the AccurateRip database
No errors occurred
End of status report
---- CUETools DB Plugin V2.1.6
[CTDB TOCID: fc03j_o0CMePXTKPQO9UmsMtXi4-] found
Submit result: fc03j_o0CMePXTKPQO9UmsMtXi4- has been confirmed
Track | CTDB Status
1 | (3/3) Accurately ripped
2 | (3/3) Accurately ripped
3 | (3/3) Accurately ripped
4 | (3/3) Accurately ripped
5 | (3/3) Accurately ripped
6 | (3/3) Accurately ripped
7 | (3/3) Accurately ripped
8 | (3/3) Accurately ripped
9 | (3/3) Accurately ripped
10 | (3/3) Accurately ripped
11 | (3/3) Accurately ripped
==== Log checksum E950EB3366B2699B82ED01835EFE5C7B13EFCD590E1DEB5ECB1F3E64EB13571B ====

.cue

REM DATE 2017
REM DISCID 9711E80B
REM COMMENT "ExactAudioCopy v1.1"
PERFORMER "Matt Gray"
TITLE "Reformation"
FILE "01 - The Temple Main Theme (From Tusker).wav" WAVE
TRACK 01 AUDIO
TITLE "The Temple Main Theme (From Tusker)"
PERFORMER "Matt Gray"
ISRC UKKZW1600004
INDEX 01 00:00:00
FILE "02 - Rambo First Blood Part 2 Loading Theme.wav" WAVE
TRACK 02 AUDIO
TITLE "Rambo First Blood Part 2 Loading Theme"
PERFORMER "Matt Gray"
ISRC UKKZW1600055
INDEX 01 00:00:00
FILE "03 - Arkanoid Title Theme.wav" WAVE
TRACK 03 AUDIO
TITLE "Arkanoid Title Theme"
PERFORMER "Matt Gray"
ISRC UKKZW1600056
INDEX 01 00:00:00
FILE "04 - Green Beret Title Theme.wav" WAVE
TRACK 04 AUDIO
TITLE "Green Beret Title Theme"
PERFORMER "Matt Gray"
ISRC UKKZW1600057
INDEX 01 00:00:00
FILE "05 - Knucklebusters Main Theme.wav" WAVE
TRACK 05 AUDIO
TITLE "Knucklebusters Main Theme"
PERFORMER "Matt Gray"
ISRC UKKZW1600058
INDEX 01 00:00:00
FILE "06 - Phantoms Of The Asteroid Main Theme.wav" WAVE
TRACK 06 AUDIO
TITLE "Phantoms Of The Asteroid Main Theme"
PERFORMER "Matt Gray"
ISRC UKKZW1600059
INDEX 01 00:00:00
FILE "07 - Shades.wav" WAVE
TRACK 07 AUDIO
TITLE "Shades"
PERFORMER "Matt Gray"
ISRC UKKZW1600060
INDEX 01 00:00:00
FILE "08 - Arcade Classics Main Theme.wav" WAVE
TRACK 08 AUDIO
TITLE "Arcade Classics Main Theme"
PERFORMER "Matt Gray"
ISRC UKKZW1600061
INDEX 01 00:00:00
FILE "09 - Mega Apocalypse Main Theme.wav" WAVE
TRACK 09 AUDIO
TITLE "Mega Apocalypse Main Theme"
PERFORMER "Matt Gray"
ISRC UKKZW1600062
INDEX 01 00:00:00
FILE "10 - W.A.R Main Theme.wav" WAVE
TRACK 10 AUDIO
TITLE "W.A.R Main Theme"
PERFORMER "Matt Gray"
ISRC UKKZW1600063
INDEX 01 00:00:00
FILE "11 - Thalamusik Sanxion Loading Theme.wav" WAVE
TRACK 11 AUDIO
TITLE "Thalamusik Sanxion Loading Theme"
PERFORMER "Matt Gray"
ISRC UKKZW1600064
INDEX 01 00:00:00
[torrents24.ru].t85657.torrent 
Торрент: Зарегистрирован [ 2019-06-05 15:30 ] · A61EB7E6FDEE1D7CB3D9DBD1DE24BB2AE763076E

Скачать .torrent

Скачать

273 KB

Статус: проверено
Скачан: 0 раз
Размер: 1,68 GB
terms.php
[Профиль] [ЛС]
Показать сообщения:    
Ответить на тему

Текущее время: 26-Июн 08:50

Часовой пояс: UTC + 3



Вы не можете начинать темы
Вы не можете отвечать на сообщения
Вы не можете редактировать свои сообщения
Вы не можете удалять свои сообщения
Вы не можете голосовать в опросах
Вы не можете прикреплять файлы к сообщениям
Вы можете скачивать файлы

Интересное в сети