Репликант / Двойник / Replicant (Ринго Лам / Ringo Lam) [2001, США, фантастика, боевик, триллер, VHSRip-AVC] [Fullscreen] DVO (Видеосервис)

Ответить на тему
Статистика раздачи
Размер:  2,14 GB   |    Зарегистрирован:  1 месяц 7 дней   |    Скачан:  0 раз

Полного источника не было: Никогда

 
   
 
 
Автор Сообщение

Ведьмочка ®

Пол: Не указан

Стаж: 1 год 4 месяца

Сообщений: 117

Создавать темы 18-Май-2019 16:59

[Цитировать]

Репликант / Двойник / Replicant / Fullscreen
Страна: США
Жанр: фантастика, боевик, триллер
Год выпуска: 2001
Продолжительность: 01:25:57
Перевод: Профессиональный (двухголосый закадровый) Видеосервис
Субтитры: нет
Оригинальная аудиодорожка: нет
Режиссер: Ринго Лам / Ringo Lam
В ролях: Жан-Клод Ван Дамм, Майкл Рукер, Катрин Дент, Йен Робисан, Пэм Хайатт, Маргарет Райан...
Описание: Полиция сбилась с ног, разыскивая серийного убийцу, совершившего более десятка нападений на одиноких матерей с детьми. Безжалостный маньяк оставляет на месте преступления всегда одно и то же — истерзанный и сожженный труп женщины и практически никаких улик, позволяющих выйти на его след. На помощь полиции приходит национальная служба безопасности, по заданию которой ученые, используя один-единственный волос убийцы, найденный на месте преступления, создали его генетического двойника — репликанта.
Специалисты полагают, что клон, благодаря генетической памяти, способен вывести их на след оригинала. Провести операцию поручают полицейскому Джейку, который долго и безуспешно преследовал маньяка и даже стал его личным врагом. Сможет ли Джейк с помощью своего подопечного — репликанта — найти и обезвредить опасного преступника или же «голос крови» победит и в городе появится еще один близнец-убийца?…
Доп. информация: Оцифровка лицензионной VHS из собственной коллекции.
Fullscreen!
Сэмпл: http://sendfile.su/1494852
Качество видео: VHSRip-AVC
Формат видео: MP4
Видео: AVC, 720х576, 5:4, 25,000 кадров/сек, 3000 Кбит/сек
Аудио: AAC, 64,0 КГц, 192 Кбит/сек, 2.0 Hi-Fi

MediaInfo

General
Complete name : G:\torrents\Replicant\Replicant.mp4
Format : MPEG-4
Format profile : Base Media
Codec ID : isom (isom/iso2/avc1/mp41)
File size : 2.14 GiB
Duration : 1 h 35 min
Overall bit rate : 3 196 kb/s
Writing application : Lavf57.56.101
Video
ID : 1
Format : AVC
Format/Info : Advanced Video Codec
Format profile : Baseline@L3
Format settings, CABAC : No
Format settings, ReFrames : 1 frame
Format settings, GOP : M=1, N=50
Codec ID : avc1
Codec ID/Info : Advanced Video Coding
Duration : 1 h 35 min
Bit rate : 3 000 kb/s
Width : 720 pixels
Height : 576 pixels
Display aspect ratio : 5:4
Frame rate mode : Constant
Frame rate : 25.000 FPS
Standard : PAL
Color space : YUV
Chroma subsampling : 4:2:0
Bit depth : 8 bits
Scan type : Progressive
Bits/(Pixel*Frame) : 0.289
Stream size : 2.01 GiB (94%)
Audio
ID : 2
Format : AAC
Format/Info : Advanced Audio Codec
Format profile : LTP
Codec ID : 40
Duration : 1 h 35 min
Bit rate mode : Constant
Bit rate : 192 kb/s
Channel(s) : 2 channels
Channel(s)_Original : 3 channels
Channel positions : Front: L C R
Sampling rate : 64.0 kHz
Frame rate : 62.500 FPS (1024 spf)
Compression mode : Lossy
Stream size : 130 MiB (6%)
Default : Yes
Alternate group : 1

Скриншот c названием фильма

[torrents24.ru].t84084.torrent 
Торрент: Зарегистрирован [ 2019-05-18 17:00 ] · 8ED88B31FF091434665E118724E3995285632029

Скачать .torrent

Скачать

11 KB

Статус: проверено
Скачан: 0 раз
Размер: 2,14 GB
terms.php
[Профиль] [ЛС]
Показать сообщения:    
Ответить на тему

Текущее время: 26-Июн 08:54

Часовой пояс: UTC + 3



Вы не можете начинать темы
Вы не можете отвечать на сообщения
Вы не можете редактировать свои сообщения
Вы не можете удалять свои сообщения
Вы не можете голосовать в опросах
Вы не можете прикреплять файлы к сообщениям
Вы можете скачивать файлы

Интересное в сети