Каменская-3. Иллюзия греха / Сезон: 3 / Серии: 1-4 из 16 (Юрий Мороз) [2003, детектив, экранизация, SATRip-AVC]

Ответить на тему
Статистика раздачи
Размер:  2,45 GB   |    Зарегистрирован:  2 месяца 8 дней   |    Скачан:  0 раз
Сидов:  1  [  0 KB/s  ]   Личеров:  1  [  0 KB/s  ]  
 
   
 
 
Автор Сообщение

АААааа ®

Пол: Не указан

Стаж: 1 год 4 месяца

Сообщений: 446

Создавать темы 15-Май-2019 15:49

[Цитировать]

Каменская-3. Иллюзия греха
Год выпуска: 2003
Производство: НТВ-Кино, Рекун-фильм, Racoon-Kino, Рекун-ТВ
Жанр: детектив, экранизация
Продолжительность: 4 x ~ 00:45:00
Субтитры: Нет
Режиссёр: Юрий Мороз
В ролях: Елена Яковлева, Сергей Никоненко, Сергей Гармаш, Дмитрий Нагиев, Андрей Ильин, Станислав Дужников, Оксана Акиньшина, Виктор Раков, Наталья Назарова (II), Денис Карасёв, Евгения Лоза, Владимир Вдовиченков, Геннадий Коротков, Алексей Макаров, Ирина Розанова, Наташа Швец (II), Андрей Панин, Марина Могилевская, Янина Колесниченко, Борис Невзоров, Светлана Никифорова, Юлия Рувинская, Линда Табагари, Джемал Тетруашвили, Людмила Мильчанина, Слава Гвоздев, Оля Лупач, Полина Коваль, Ерванд (Эрик) Арзуманян, Снежана Синкина, Тимофей Ткачев
Описание: Шесть лет назад мать Иры Терехиной искалечила себя и троих своих детей. Но и спустя годы трагедия не дает забыть о себе. Один за другим погибают люди, которые могут дать информацию о таинственном человеке, который был когда-то знаком с матерью девушки...
Доп. информация: Раздача, как дополнение к моей же предыдущей: Каменская / Сезоны: 1-6 / Серии: 1-84 из 84 (Юрий Мороз, Александр Аравин, Антон Сиверс, Марат Ким, Егор Анашкин) [1999-2011, детектив, DVDRip-AVC, WEBRip-AVC]
Реклама: Нет
Сэмпл: http://multi-up.com/1232102
Качество: SATRip-AVC
Формат: MKV
Видео кодек: H.264
Аудио кодек: AC3
Видео: MPEG-4 (AVC), ~ 668x572@950x572, 25 fps, ~ 1800 kbps, ~ 0.19 bit/pixel
Аудио: AC3, 2 ch, 192 kbps, 48.0 kHz

MI

General
Unique ID : 225937507263309586365540486441830539323 (0xA9F9FB280CC090278B1DC39FD40D603B)
Complete name : 1. Иллюзия греха (1 сер.).mkv
Format : Matroska
Format version : Version 2
File size : 620 MiB
Duration : 43 min 28 s
Overall bit rate : 1 994 kb/s
Encoded date : UTC 2019-02-05 05:26:40
Writing application : mkvmerge v7.8.0 ('River Man') 32bit built on Apr 3 2015 12:11:22
Writing library : libebml v1.3.1 + libmatroska v1.4.2
Video
ID : 1
Format : AVC
Format/Info : Advanced Video Codec
Format profile : High@L3.1
Format settings : CABAC / 6 Ref Frames
Format settings, CABAC : Yes
Format settings, ReFrames : 6 frames
Codec ID : V_MPEG4/ISO/AVC
Duration : 43 min 28 s
Bit rate : 1 800 kb/s
Width : 668 pixels
Height : 572 pixels
Display aspect ratio : 5:3
Frame rate mode : Constant
Frame rate : 25.000 FPS
Color space : YUV
Chroma subsampling : 4:2:0
Bit depth : 8 bits
Scan type : Progressive
Bits/(Pixel*Frame) : 0.188
Stream size : 548 MiB (88%)
Writing library : x264 core 157 r2935 545de2f
Encoding settings : cabac=1 / ref=6 / deblock=1:0:0 / analyse=0x3:0x113 / me=umh / subme=8 / psy=1 / psy_rd=1.00:0.00 / mixed_ref=1 / me_range=24 / chroma_me=1 / trellis=1 / 8x8dct=1 / cqm=0 / deadzone=21,11 / fast_pskip=1 / chroma_qp_offset=-2 / threads=4 / lookahead_threads=4 / sliced_threads=0 / nr=0 / decimate=1 / interlaced=0 / bluray_compat=0 / stitchable=1 / constrained_intra=0 / bframes=6 / b_pyramid=2 / b_adapt=1 / b_bias=0 / direct=3 / weightb=1 / open_gop=0 / weightp=2 / keyint=250 / keyint_min=25 / scenecut=40 / intra_refresh=0 / rc_lookahead=40 / rc=2pass / mbtree=1 / bitrate=1800 / ratetol=1.0 / qcomp=0.60 / qpmin=0 / qpmax=69 / qpstep=4 / cplxblur=20.0 / qblur=0.5 / ip_ratio=1.40 / aq=1:1.00
Default : Yes
Forced : No
Audio
ID : 2
Format : AC-3
Format/Info : Audio Coding 3
Commercial name : Dolby Digital
Codec ID : A_AC3
Duration : 43 min 28 s
Bit rate mode : Constant
Bit rate : 192 kb/s
Channel(s) : 2 channels
Channel layout : L R
Sampling rate : 48.0 kHz
Frame rate : 31.250 FPS (1536 SPF)
Bit depth : 16 bits
Compression mode : Lossy
Stream size : 59.7 MiB (10%)
Service kind : Complete Main
Default : Yes
Forced : No

Скриншоты

Предыдущие и альтернативные раздачи
[torrents24.ru].t83839.torrent 
Торрент: Зарегистрирован [ 2019-05-15 15:50 ] · CEA30DBFCAC425F5204D86BAAB680D02F7467FF5

Скачать .torrent

Скачать

13 KB

Статус: проверено
Скачан: 0 раз
Размер: 2,45 GB
terms.php
[Профиль] [ЛС]
Показать сообщения:    
Ответить на тему

Текущее время: 24-Июл 07:30

Часовой пояс: UTC + 3



Вы не можете начинать темы
Вы не можете отвечать на сообщения
Вы не можете редактировать свои сообщения
Вы не можете удалять свои сообщения
Вы не можете голосовать в опросах
Вы не можете прикреплять файлы к сообщениям
Вы можете скачивать файлы

Интересное в сети