(Pop Rock) [CD] Rob Thomas - Chip Tooth Smile - 2019, FLAC (tracks+.cue), lossless

Ответить на тему
Статистика раздачи
Размер:  269 MB   |    Зарегистрирован:  5 дней   |    Скачан:  0 раз

Полного источника не было: Никогда

 
   
 
 
Автор Сообщение

folk ®

Пол: Не указан

Стаж: 1 год 2 месяца

Сообщений: 99

Создавать темы 15-Май-2019 15:49

[Цитировать]

Rob Thomas / Chip Tooth Smile
Жанр: Pop Rock
Носитель: CD
Год издания: 2019
Издатель (лейбл): Atlantic
Номер по каталогу: 587656-2
Страна исполнителя (группы): US
Аудиокодек: FLAC (*.flac)
Тип рипа: tracks+.cue
Продолжительность: 00:39:34
Источник: интернет (RED)
Наличие сканов в содержимом раздачи: нет
Треклист:
01. One Less Day (Dying Young) (03:04)
02. Timeless (03:56)
03. Can’t Help Me Now (03:23)
04. Funny (03:07)
05. I Love It (03:22)
06. The Man to Hold the Water (02:40)
07. We Were Beautiful (02:55)
08. It’s Only Love (03:29)
09. Early in the Morning (04:21)
10. The Worst in Me (03:13)
11. Tomorrow (03:00)
12. Breathe Out (03:04)

Лог создания рипа

X Lossless Decoder version 20181019 (151.1)
XLD extraction logfile from 2019-05-13 17:10:46 -0400
Rob Thomas / Chip Tooth Smile
Used drive : HL-DT-ST DVDRAM GP65NS60 (revision PF00)
Media type : Pressed CD
Ripper mode : XLD Secure Ripper
Disable audio cache : OK for the drive with a cache less than 1375KiB
Make use of C2 pointers : NO
Read offset correction : 6
Max retry count : 100
Gap status : Analyzed, Appended (except HTOA)
TOC of the extracted CD
Track | Start | Length | Start sector | End sector
---------------------------------------------------------
1 | 00:00:00 | 03:04:67 | 0 | 13866
2 | 03:04:67 | 03:56:34 | 13867 | 31600
3 | 07:01:26 | 03:23:27 | 31601 | 46852
4 | 10:24:53 | 03:07:66 | 46853 | 60943
5 | 13:32:44 | 03:22:70 | 60944 | 76163
6 | 16:55:39 | 02:40:13 | 76164 | 88176
7 | 19:35:52 | 02:55:43 | 88177 | 101344
8 | 22:31:20 | 03:29:48 | 101345 | 117067
9 | 26:00:68 | 04:21:11 | 117068 | 136653
10 | 30:22:04 | 03:13:71 | 136654 | 151199
11 | 33:36:00 | 03:00:10 | 151200 | 164709
12 | 36:36:10 | 03:04:66 | 164710 | 178575
AccurateRip Summary (DiscID: 0011cf37-00a607f5-96094d0c)
Track 01 : OK (v2, confidence 2/2)
Track 02 : OK (v2, confidence 2/2)
Track 03 : OK (v2, confidence 2/2)
Track 04 : OK (v2, confidence 2/2)
Track 05 : OK (v2, confidence 2/2)
Track 06 : OK (v2, confidence 2/2)
Track 07 : OK (v2, confidence 2/2)
Track 08 : OK (v2, confidence 2/2)
Track 09 : OK (v2, confidence 2/2)
Track 10 : OK (v2, confidence 2/2)
Track 11 : OK (v2, confidence 2/2)
Track 12 : OK (v2, confidence 2/2)
->All tracks accurately ripped.
All Tracks
Album gain : -11.25 dB
Peak : 0.996002
Statistics
Read error : 0
Jitter error (maybe fixed) : 0
Retry sector count : 0
Damaged sector count : 0
Track 01
Filename : /Users/mydrive/Music/Rob Thomas - Chip Tooth Smile (2019) [FLAC]/01 One Less Day (Dying Young).flac
Pre-gap length : 00:02:00
Track gain : -11.95 dB
Peak : 0.996002
CRC32 hash (test run) : 481EFEB3
CRC32 hash : 481EFEB3
CRC32 hash (skip zero) : BB350E07
AccurateRip v1 signature : A4BED528
AccurateRip v2 signature : 208A77B0
->Accurately ripped (v2, confidence 2/2)
Statistics
Read error : 0
Jitter error (maybe fixed) : 0
Retry sector count : 0
Damaged sector count : 0
Track 02
Filename : /Users/mydrive/Music/Rob Thomas - Chip Tooth Smile (2019) [FLAC]/02 Timeless.flac
Track gain : -11.94 dB
Peak : 0.995148
CRC32 hash (test run) : A6D99ADB
CRC32 hash : A6D99ADB
CRC32 hash (skip zero) : 155498A2
AccurateRip v1 signature : A1C26E44
AccurateRip v2 signature : AF6FF907
->Accurately ripped (v2, confidence 2/2)
Statistics
Read error : 0
Jitter error (maybe fixed) : 0
Retry sector count : 0
Damaged sector count : 0
Track 03
Filename : /Users/mydrive/Music/Rob Thomas - Chip Tooth Smile (2019) [FLAC]/03 Can't Help Me Now.flac
Track gain : -11.55 dB
Peak : 0.994781
CRC32 hash (test run) : F41F34E7
CRC32 hash : F41F34E7
CRC32 hash (skip zero) : 4E1913C2
AccurateRip v1 signature : EF3A27B5
AccurateRip v2 signature : F1E67071
->Accurately ripped (v2, confidence 2/2)
Statistics
Read error : 0
Jitter error (maybe fixed) : 0
Retry sector count : 0
Damaged sector count : 0
Track 04
Filename : /Users/mydrive/Music/Rob Thomas - Chip Tooth Smile (2019) [FLAC]/04 Funny.flac
Track gain : -10.64 dB
Peak : 0.995056
CRC32 hash (test run) : 6C4AE274
CRC32 hash : 6C4AE274
CRC32 hash (skip zero) : 532B5A6F
AccurateRip v1 signature : 1FF73B2C
AccurateRip v2 signature : 1024A29B
->Accurately ripped (v2, confidence 2/2)
Statistics
Read error : 0
Jitter error (maybe fixed) : 0
Retry sector count : 0
Damaged sector count : 0
Track 05
Filename : /Users/mydrive/Music/Rob Thomas - Chip Tooth Smile (2019) [FLAC]/05 I Love It.flac
Track gain : -12.72 dB
Peak : 0.936371
CRC32 hash (test run) : 69192856
CRC32 hash : 69192856
CRC32 hash (skip zero) : A586F318
AccurateRip v1 signature : 40BC59A7
AccurateRip v2 signature : A7EF126A
->Accurately ripped (v2, confidence 2/2)
Statistics
Read error : 0
Jitter error (maybe fixed) : 0
Retry sector count : 0
Damaged sector count : 0
Track 06
Filename : /Users/mydrive/Music/Rob Thomas - Chip Tooth Smile (2019) [FLAC]/06 The Man To Hold The Water.flac
Track gain : -8.99 dB
Peak : 0.913910
CRC32 hash (test run) : A0CA36B7
CRC32 hash : A0CA36B7
CRC32 hash (skip zero) : 0080B4EC
AccurateRip v1 signature : E22921F4
AccurateRip v2 signature : C571D4B4
->Accurately ripped (v2, confidence 2/2)
Statistics
Read error : 0
Jitter error (maybe fixed) : 0
Retry sector count : 0
Damaged sector count : 0
Track 07
Filename : /Users/mydrive/Music/Rob Thomas - Chip Tooth Smile (2019) [FLAC]/07 We Were Beautiful.flac
Track gain : -9.26 dB
Peak : 0.995026
CRC32 hash (test run) : B14253B4
CRC32 hash : B14253B4
CRC32 hash (skip zero) : 8B2E8B36
AccurateRip v1 signature : BA20FD98
AccurateRip v2 signature : 04163565
->Accurately ripped (v2, confidence 2/2)
Statistics
Read error : 0
Jitter error (maybe fixed) : 0
Retry sector count : 0
Damaged sector count : 0
Track 08
Filename : /Users/mydrive/Music/Rob Thomas - Chip Tooth Smile (2019) [FLAC]/08 It's Only Love.flac
Track gain : -10.89 dB
Peak : 0.994904
CRC32 hash (test run) : 340B1981
CRC32 hash : 340B1981
CRC32 hash (skip zero) : 1C219F39
AccurateRip v1 signature : EF1FEDFD
AccurateRip v2 signature : 720A872D
->Accurately ripped (v2, confidence 2/2)
Statistics
Read error : 0
Jitter error (maybe fixed) : 0
Retry sector count : 0
Damaged sector count : 0
Track 09
Filename : /Users/mydrive/Music/Rob Thomas - Chip Tooth Smile (2019) [FLAC]/09 Early In The Morning.flac
Track gain : -10.79 dB
Peak : 0.995117
CRC32 hash (test run) : C06E71D3
CRC32 hash : C06E71D3
CRC32 hash (skip zero) : A18C636A
AccurateRip v1 signature : D352CA0B
AccurateRip v2 signature : D044CD4F
->Accurately ripped (v2, confidence 2/2)
Statistics
Read error : 0
Jitter error (maybe fixed) : 0
Retry sector count : 0
Damaged sector count : 0
Track 10
Filename : /Users/mydrive/Music/Rob Thomas - Chip Tooth Smile (2019) [FLAC]/10 The Worst In Me.flac
Track gain : -11.17 dB
Peak : 0.970367
CRC32 hash (test run) : FDFF7188
CRC32 hash : FDFF7188
CRC32 hash (skip zero) : B1B87946
AccurateRip v1 signature : 89647348
AccurateRip v2 signature : FF6B8D7C
->Accurately ripped (v2, confidence 2/2)
Statistics
Read error : 0
Jitter error (maybe fixed) : 0
Retry sector count : 0
Damaged sector count : 0
Track 11
Filename : /Users/mydrive/Music/Rob Thomas - Chip Tooth Smile (2019) [FLAC]/11 Tomorrow.flac
Track gain : -12.17 dB
Peak : 0.994873
CRC32 hash (test run) : 48F64971
CRC32 hash : 48F64971
CRC32 hash (skip zero) : 82F34A5A
AccurateRip v1 signature : 0AD16513
AccurateRip v2 signature : 1FC2F06D
->Accurately ripped (v2, confidence 2/2)
Statistics
Read error : 0
Jitter error (maybe fixed) : 0
Retry sector count : 0
Damaged sector count : 0
Track 12
Filename : /Users/mydrive/Music/Rob Thomas - Chip Tooth Smile (2019) [FLAC]/12 Breathe Out.flac
Track gain : -10.52 dB
Peak : 0.995728
CRC32 hash (test run) : DECD490D
CRC32 hash : DECD490D
CRC32 hash (skip zero) : B85BAF4A
AccurateRip v1 signature : 12272F72
AccurateRip v2 signature : 83BFE327
->Accurately ripped (v2, confidence 2/2)
Statistics
Read error : 0
Jitter error (maybe fixed) : 0
Retry sector count : 0
Damaged sector count : 0
No errors occurred
End of status report
-----BEGIN XLD SIGNATURE-----
qwiBBW9yOLH5Sx0WwwIcIo1NAkad5oDuDgReo81isnMYkwDeZFoPLaYIvqMzpGJT8EPkeB1mQbuXMyBZFOWu4.r.oGSoTLaKCb2m9W4
-----END XLD SIGNATURE-----

Содержание индексной карты (.CUE)

TITLE "Chip Tooth Smile"
PERFORMER "Rob Thomas"
CATALOG 0075678652998
REM GENRE "Pop"
REM DATE "2019"
REM DISCNUMBER 1
REM TOTALDISCS 1
REM DISCID 96094D0C
REM REPLAYGAIN_ALBUM_GAIN -11.25 dB
REM REPLAYGAIN_ALBUM_PEAK 0.996002
FILE "01 One Less Day (Dying Young).flac" WAVE
TRACK 01 AUDIO
TITLE "One Less Day (Dying Young)"
PERFORMER "Rob Thomas"
ISRC USAT21900770
REM REPLAYGAIN_TRACK_GAIN -11.95 dB
REM REPLAYGAIN_TRACK_PEAK 0.996002
INDEX 01 00:00:00
FILE "02 Timeless.flac" WAVE
TRACK 02 AUDIO
TITLE "Timeless"
PERFORMER "Rob Thomas"
ISRC USAT21901723
REM REPLAYGAIN_TRACK_GAIN -11.94 dB
REM REPLAYGAIN_TRACK_PEAK 0.995148
INDEX 01 00:00:00
FILE "03 Can't Help Me Now.flac" WAVE
TRACK 03 AUDIO
TITLE "Can't Help Me Now"
PERFORMER "Rob Thomas"
ISRC USAT21901724
REM REPLAYGAIN_TRACK_GAIN -11.55 dB
REM REPLAYGAIN_TRACK_PEAK 0.994781
INDEX 01 00:00:00
FILE "04 Funny.flac" WAVE
TRACK 04 AUDIO
TITLE "Funny"
PERFORMER "Rob Thomas"
ISRC USAT21901725
REM REPLAYGAIN_TRACK_GAIN -10.64 dB
REM REPLAYGAIN_TRACK_PEAK 0.995056
INDEX 01 00:00:00
FILE "05 I Love It.flac" WAVE
TRACK 05 AUDIO
TITLE "I Love It"
PERFORMER "Rob Thomas"
ISRC USAT21901726
REM REPLAYGAIN_TRACK_GAIN -12.72 dB
REM REPLAYGAIN_TRACK_PEAK 0.936371
INDEX 01 00:00:00
FILE "06 The Man To Hold The Water.flac" WAVE
TRACK 06 AUDIO
TITLE "The Man To Hold The Water"
PERFORMER "Rob Thomas"
ISRC USAT21901727
REM REPLAYGAIN_TRACK_GAIN -8.99 dB
REM REPLAYGAIN_TRACK_PEAK 0.913910
INDEX 01 00:00:00
FILE "07 We Were Beautiful.flac" WAVE
TRACK 07 AUDIO
TITLE "We Were Beautiful"
PERFORMER "Rob Thomas"
ISRC USAT21901728
REM REPLAYGAIN_TRACK_GAIN -9.26 dB
REM REPLAYGAIN_TRACK_PEAK 0.995026
INDEX 01 00:00:00
FILE "08 It's Only Love.flac" WAVE
TRACK 08 AUDIO
TITLE "It's Only Love"
PERFORMER "Rob Thomas"
ISRC USAT21901729
REM REPLAYGAIN_TRACK_GAIN -10.89 dB
REM REPLAYGAIN_TRACK_PEAK 0.994904
INDEX 01 00:00:00
FILE "09 Early In The Morning.flac" WAVE
TRACK 09 AUDIO
TITLE "Early In The Morning"
PERFORMER "Rob Thomas"
ISRC USAT21901730
REM REPLAYGAIN_TRACK_GAIN -10.79 dB
REM REPLAYGAIN_TRACK_PEAK 0.995117
INDEX 01 00:00:00
FILE "10 The Worst In Me.flac" WAVE
TRACK 10 AUDIO
TITLE "The Worst In Me"
PERFORMER "Rob Thomas"
ISRC USAT21901731
REM REPLAYGAIN_TRACK_GAIN -11.17 dB
REM REPLAYGAIN_TRACK_PEAK 0.970367
INDEX 01 00:00:00
FILE "11 Tomorrow.flac" WAVE
TRACK 11 AUDIO
TITLE "Tomorrow"
PERFORMER "Rob Thomas"
ISRC USAT21901732
REM REPLAYGAIN_TRACK_GAIN -12.17 dB
REM REPLAYGAIN_TRACK_PEAK 0.994873
INDEX 01 00:00:00
FILE "12 Breathe Out.flac" WAVE
TRACK 12 AUDIO
TITLE "Breathe Out"
PERFORMER "Rob Thomas"
ISRC USAT21901733
REM REPLAYGAIN_TRACK_GAIN -10.52 dB
REM REPLAYGAIN_TRACK_PEAK 0.995728
INDEX 01 00:00:00
[torrents24.ru].t83826.torrent 
Торрент: Зарегистрирован [ 2019-05-15 15:50 ] · 557EA020099A11E16E36DE7E7E865B14126E9081

Скачать .torrent

Скачать

22 KB

Статус: проверено
Скачан: 0 раз
Размер: 269 MB
terms.php
[Профиль] [ЛС]
Показать сообщения:    
Ответить на тему

Текущее время: 21-Май 10:07

Часовой пояс: UTC + 3



Вы не можете начинать темы
Вы не можете отвечать на сообщения
Вы не можете редактировать свои сообщения
Вы не можете удалять свои сообщения
Вы не можете голосовать в опросах
Вы не можете прикреплять файлы к сообщениям
Вы можете скачивать файлы

Интересное в сети