Чудо: Слезы Мадонны / Il Miracolo / Сезон: 1 / Серии: 1-8 из 8 (Никколо Амманити, Франческо Мунци, Лучио Пеллегрини) [2018, Италия, Франция, Драма, детектив, триллер, HDRip] MVO (Novamedia) + Original + Sub (Rus, Eng, Ita)

Ответить на тему
Статистика раздачи
Размер:  5,28 GB   |    Зарегистрирован:  2 месяца 8 дней   |    Скачан:  0 раз

Полного источника не было: Никогда

 
   
 
 
Автор Сообщение

Domino ®

Пол: Не указан

Стаж: 1 год 5 месяцев

Сообщений: 439

Создавать темы 15-Май-2019 15:49

[Цитировать]

Чудо: Слезы Мадонны | Il Miracolo- Год выпуска: 2018
Страна: Италия, Франция
Жанр: Драма, детектив, триллер
Продолжительность: ~ 00:49:00-Перевод: Профессиональный (многоголосый закадровый) | Novamedia-Режиссёр: Никколо Амманити, Франческо Мунци, Лучио Пеллегрини-В ролях: Гуидо Каприно, Элена Льетти, Лоренца Индовина, Алессио Пратико, Ирена Голубева, Эдоардо Натоли, Серджио Альбелли, Пия Ланчотти, Леонардо Маддалена, Денис Фазоло-Описание: Во время облавы на крупного мафиозного босса полиция обнаруживает статуэтку Мадонны — пластиковую, какие выпускают тысячами каждый год. Однако эта — не совсем обычная: из ее глаз обильно льются кровавые слезы.
Находка тут же меняет жизнь всех, кто с ней соприкасается: священника Марчелло, потерявшего веру азартного игрока и сексоголика; врача-лаборанта Сандры, которая ухаживает за больной матерью; премьер-министра Фабрицио Пьетромаки, который теперь должен решить, что делать с порядком стране, если новость о мироточащей статуэтке станет достоянием общественности. Герои проверяют на прочность свой атеизм, испытывают скептицизм и подвергают сомнениям научный подход. А заодно осознают: для того чтобы верно распорядиться собственной жизнью, не нужно ждать божественного знамения.- -[box=#aed8ff,#003465]Ссылка на предыдущие и альтернативные раздачи[/box]-Источник: BDRip 720p
Качество: HDRip
Контейнер: AVI
Видео: XviD, 720x304 (2,35:1), 25,000 кадров/сек, ~1500 Кбит/сек
Аудио Rus: AC3, 48,0 kHz, 2 ch, 192 Кбит/сек | Novamedia
Аудио Ita: AC3, 48,0 kHz, 2 ch, 192 Кбит/сек
Субтитры: Russian (Full), English, Italian
Реклама: Отсутствует-

✘ Релиз ✘

• Работа c дорогой и субтитрами BenderBEST.
-

MediaInfo

Общее
Полное имя : E:\Il.Miracolo.Mini-Series.720p.BDRip.Rus.Ita_TeamHD\Il Miracolo (Season 1) HDRip\Il.Miracolo.Part.1.HDRip.RGzsRutracker.[Wentworth_Miller].avi
Формат : AVI
Формат/Информация : Audio Video Interleave
Размер файла : 650 Мбайт
Продолжительность : 48 м. 26 с.
Общий поток : 1876 Кбит/сек
Название фильма : Il Miracolo Part 1 (2018) - Release by Wentworth_Miller
Программа кодирования : VirtualDubMod 1.5.10.3 | www.virtualdub-fr.org || (build 2550/release)
Видео
Идентификатор : 0
Формат : MPEG-4 Visual
Профиль формата : Advanced Simple@L5
Настройки формата : BVOP1
Параметр BVOP формата : 1
Параметр QPel формата : Нет
Параметр GMC формата : Без точки перехода
Параметр матрицы формата : Default (MPEG)
Идентификатор кодека : XVID
Идентификатор кодека/Подсказка : XviD
Продолжительность : 48 м. 26 с.
Битрейт : 1477 Кбит/сек
Ширина : 720 пикселей
Высота : 304 пикселя
Соотношение сторон : 2,35:1
Частота кадров : 25,000 кадров/сек
Цветовое пространство : YUV
Субдискретизация насыщенности : 4:2:0
Битовая глубина : 8 бит
Тип развёртки : Прогрессивная
Метод сжатия : С потерями
Бит/(Пиксели*Кадры) : 0.270
Размер потока : 512 Мбайт (79%)
Библиотека кодирования : XviD 67
Аудио #1
Идентификатор : 1
Формат : AC-3
Формат/Информация : Audio Coding 3
Коммерческое название : Dolby Digital
Идентификатор кодека : 2000
Продолжительность : 48 м. 26 с.
Вид битрейта : Постоянный
Битрейт : 192 Кбит/сек
Каналы : 2 канала
ChannelLayout : L R
Частота : 48,0 КГц
Частота кадров : 31,250 кадров/сек (1536 SPF)
Битовая глубина : 16 бит
Метод сжатия : С потерями
Размер потока : 66,5 Мбайт (10%)
Выравнивание : Разделение по промежуткам
Продолжительность промежутка : 40 мс. (1,00 видеокадр)
Время предзагрузки промежутка : 500 мс.
ServiceKind/String : Complete Main
Аудио #2
Идентификатор : 2
Формат : AC-3
Формат/Информация : Audio Coding 3
Коммерческое название : Dolby Digital
Идентификатор кодека : 2000
Продолжительность : 48 м. 26 с.
Вид битрейта : Постоянный
Битрейт : 192 Кбит/сек
Каналы : 2 канала
ChannelLayout : L R
Частота : 48,0 КГц
Частота кадров : 31,250 кадров/сек (1536 SPF)
Битовая глубина : 16 бит
Метод сжатия : С потерями
Размер потока : 66,5 Мбайт (10%)
Выравнивание : Разделение по промежуткам
Продолжительность промежутка : 40 мс. (1,00 видеокадр)
Время предзагрузки промежутка : 500 мс.
ServiceKind/String : Complete Main
-

Скриншоты

-Релиз группы:
[torrents24.ru].t83823.torrent 
Торрент: Зарегистрирован [ 2019-05-15 15:50 ] · 53AF874EDC08E2E8BDAFB6E81F69EE40589FEE45

Скачать .torrent

Скачать

30 KB

Статус: проверено
Скачан: 0 раз
Размер: 5,28 GB
terms.php
[Профиль] [ЛС]
Показать сообщения:    
Ответить на тему

Текущее время: 24-Июл 08:26

Часовой пояс: UTC + 3



Вы не можете начинать темы
Вы не можете отвечать на сообщения
Вы не можете редактировать свои сообщения
Вы не можете удалять свои сообщения
Вы не можете голосовать в опросах
Вы не можете прикреплять файлы к сообщениям
Вы можете скачивать файлы

Интересное в сети