(Pop) [CD] Крылов Сергей - Порт Саид - 1993, FLAC (image+.cue), lossless

Ответить на тему
Статистика раздачи
Размер:  531 MB   |    Зарегистрирован:  2 месяца 8 дней   |    Скачан:  0 раз

Полного источника не было: Никогда

 
   
 
 
Автор Сообщение

Usagi ®

Пол: Не указан

Стаж: 1 год 5 месяцев

Сообщений: 212

Создавать темы 15-Май-2019 15:49

[Цитировать]

Крылов Сергей / Порт Саид
Жанр: Pop
Носитель: CD
Страна-производитель диска (релиза): EU
Год издания: 1993
Издатель (лейбл): RDM
Номер по каталогу: CDRDM 407041
Страна исполнителя (группы): Россия
Аудиокодек: FLAC (*.flac)
Тип рипа: image+.cue
Продолжительность: 01:00:53
Источник: собственный рип
Наличие сканов в содержимом раздачи: да
Треклист:
01. В далеком Бискайском заливе [04:54]
02. Золотой фокстрот [04:48]
03. Порт Саид [04:26]
04. Море [05:11]
05. Девочка [03:59]
06. Башмак [03:24]
07. Махмуд Али-Мамед [03:49]
08. Еще недавно ты была со мной [03:41]
09. Осень [04:36]
10. Зимняя песня [03:53]
11. Пингвины [03:51]
12. Стюардесса по имени Жанна [05:23]
13. Какаду [03:54.38]
14. Жан-Клод Ван Дамм [05:01]

Лог создания рипа

Exact Audio Copy V1.0 beta 3 from 29. August 2011
Отчёт EAC об извлечении, выполненном 14. мая 2019, 12:04
Крылов Сергей / Порт Саид
Дисковод: Optiarc DVD RW AD-7280S Adapter: 1 ID: 0
Режим чтения : Достоверность
Использование точного потока : Да
Отключение кэша аудио : Да
Использование указателей C2 : Нет
Коррекция смещения при чтении : 48
Способность читать области Lead-in и Lead-out : Нет
Заполнение пропущенных сэмплов тишиной : Да
Удаление блоков с тишиной в начале и конце : Нет
При вычислениях CRC использовались нулевые сэмплы : Да
Интерфейс : Встроенный Win32-интерфейс для Win NT/2000
Выходной формат : Пользовательский кодировщик
Выбранный битрейт : 768 kBit/s
Качество : Высокий
Добавление ID3-тега : Нет
Утилита сжатия : C:\Program Files (x86)\Exact Audio Copy\FLAC\FLAC.EXE
Дополнительные параметры : -8 -V -T "ARTIST=%artist%" -T "TITLE=%title%" -T "ALBUM=%albumtitle%" -T "DATE=%year%" -T "TRACKNUMBER=%tracknr%" -T "GENRE=%genre%" -T "COMMENT=%comment%" -T "BAND=%albuminterpret%" -T "ALBUMARTIST=%albuminterpret%" -T "COMPOSER=%composer%" %haslyrics%--tag-from-file=LYRICS="%lyricsfile%"%haslyrics% -T "DISCNUMBER=%cdnumber%" -T "TOTALDISCS=%totalcds%" -T "TOTALTRACKS=%numtracks%" %hascover%--picture="%coverfile%"%hascover% %source% -o %dest%
TOC извлечённого CD
Трек | Старт | Длительность | Начальный сектор | Конечный сектор
---------------------------------------------------------------------
1 | 0:00.32 | 4:54.30 | 32 | 22111
2 | 4:54.62 | 4:48.25 | 22112 | 43736
3 | 9:43.12 | 4:26.25 | 43737 | 63711
4 | 14:09.37 | 5:11.38 | 63712 | 87074
5 | 19:21.00 | 3:59.12 | 87075 | 105011
6 | 23:20.12 | 3:24.00 | 105012 | 120311
7 | 26:44.12 | 3:49.00 | 120312 | 137486
8 | 30:33.12 | 3:41.00 | 137487 | 154061
9 | 34:14.12 | 4:36.25 | 154062 | 174786
10 | 38:50.37 | 3:53.00 | 174787 | 192261
11 | 42:43.37 | 3:51.25 | 192262 | 209611
12 | 46:34.62 | 5:23.00 | 209612 | 233836
13 | 51:57.62 | 3:54.38 | 233837 | 251424
14 | 55:52.25 | 5:01.12 | 251425 | 274011
Характеристики диапазона извлечения и сообщения об ошибках
Выбранный диапазон
Имя файла D:\РАЗДАЧИ\Крылов Сергей-Порт Саид (1993)\Крылов Сергей - Порт Саид.wav
Пиковый уровень 100.0 %
Скорость извлечения 3.1 X
Качество диапазона 100.0 %
CRC теста A780018E
CRC копии A780018E
Копирование... OK
Ошибок не произошло
AccurateRip: сводка
Трек 1 : извлечено точно (доверие 1) [5B4C4DA6] (AR v1)
Трек 2 : извлечено точно (доверие 1) [AEEB3D70] (AR v1)
Трек 3 : извлечено точно (доверие 1) [F51B9591] (AR v1)
Трек 4 : извлечено точно (доверие 1) [8AFEFF0A] (AR v1)
Трек 5 : извлечено точно (доверие 1) [0C10C07C] (AR v1)
Трек 6 : извлечено точно (доверие 1) [550799E5] (AR v1)
Трек 7 : извлечено точно (доверие 1) [19297238] (AR v1)
Трек 8 : извлечено точно (доверие 1) [24A8E53A] (AR v1)
Трек 9 : извлечено точно (доверие 1) [CC3A8690] (AR v1)
Трек 10 : извлечено точно (доверие 1) [E06CE016] (AR v1)
Трек 11 : извлечено точно (доверие 1) [B98F182D] (AR v1)
Трек 12 : извлечено точно (доверие 1) [B1E31A56] (AR v1)
Трек 13 : извлечено точно (доверие 1) [4727C41A] (AR v1)
Трек 14 : извлечено точно (доверие 1) [5A8CB693] (AR v1)
Все треки извлечены точно
Конец отчёта
==== Контрольная сумма отчёта A326BA6B54A7A1E19F532401CB57D6DC36D207B898F36A07307EF70AAD33D7FD ====
[torrents24.ru].t83817.torrent 
Торрент: Зарегистрирован [ 2019-05-15 15:50 ] · A7B87E6430644E1042531A39A8B03B5A557CEA3B

Скачать .torrent

Скачать

12 KB

Статус: проверено
Скачан: 0 раз
Размер: 531 MB
terms.php
[Профиль] [ЛС]
Показать сообщения:    
Ответить на тему

Текущее время: 24-Июл 07:43

Часовой пояс: UTC + 3



Вы не можете начинать темы
Вы не можете отвечать на сообщения
Вы не можете редактировать свои сообщения
Вы не можете удалять свои сообщения
Вы не можете голосовать в опросах
Вы не можете прикреплять файлы к сообщениям
Вы можете скачивать файлы

Интересное в сети