Зелёное крыло / Green Wing / Сезон: 1 / Серии: 1 (9) (Доминик Бригсток, Тристрам Шапиро) [2004, Великобритания, комедия, DVDRip-AVC] MVO (Ozz) + Original + Sub Rus

Ответить на тему
Статистика раздачи
Размер:  821 MB   |    Зарегистрирован:  5 дней   |    Скачан:  0 раз

Полного источника не было: Никогда

 
   
 
 
Автор Сообщение

Domino ®

Пол: Не указан

Стаж: 1 год 3 месяца

Сообщений: 251

Создавать темы 15-Май-2019 15:49

[Цитировать]

Green Wing - First Season
Зелёное крыло - Первый сезон- Год выхода: 2004
Страна: Великобритания
Жанр: комедия
Продолжительность: ~00:52:00
Перевод: Профессиональный (многоголосый закадровый) Ozz-Режиссер: Доминик Бригсток, Тристрам Шапиро
В ролях: Сэлли Бреттон, Оливер Крис, Оливия Колман, Мишель Гомес, Тэмсин Грег, Пиппа Хэйвуд, Марк Хип, Кэти Лайонс, Стивен Мэнгэн, Люсинда Райкс и др.-Описание: Сериал о помощнице хирурга Керолайн Тодд и ее коллегах. Они общаются, любят друг друга, ссорятся, мирятся, попадают в забавные и нелепые ситуации. В сериале нет ярко выраженной сюжетной линии, авторы рассказывают нам свою историю с помощью коротких скетчей, эпизодов, которые соединяются воедино общими героями.- -Все раздачи сериала | Sample- Роли озвучивают: | Алексей Никитин, Иван Кузнецов, Ирина Воронова и Алексей Серёгин |
Автор перевода: | Василий Мерзляков |
Подготовлено: Ozz-Качество: DVDRip-AVC
Формат: mkv
Видео кодек: x264
Аудио кодек: AC3
Видео: 1002x560 at 23.976 fps, AVC, 1900 kbps avg, 0.137 b/pixel
Аудио #1: Russian 48.0 KHz, AC3 , 2 channels, 192 Kbps |Ozz|
Аудио #2: English 44.1 KHz, AAC , 2 channels, 128 Kbps |Original|
Субтитры: Russian (srt)
Реклама: Присутствует звуковая (два раза в начале и конце по 10 сек.)

MediaInfo

Код:Общее
Уникальный идентификатор : 173458961227655835905792483888491327731 (0x827EFB12C3903B4F982FA974A322F0F3)
Полное имя : D:\Green.Wing.S01.DVDRip-AVC.Rus.Eng.Ozz\Green.Wing.S01E01.DVDRip-AVC.Rus.Eng.Ozz.mkv
Формат : Matroska
Версия формата : Version 4 / Version 2
Размер файла : 821 Мбайт
Продолжительность : 52 м. 53 с.
Общий поток : 2169 Кбит/сек
Дата кодирования : UTC 2019-05-14 10:23:01
Программа кодирования : mkvmerge v8.3.0 ('Over the Horizon') 64bit
Библиотека кодирования : libebml v1.3.1 + libmatroska v1.4.2
Видео
Идентификатор : 1
Формат : AVC
Формат/Информация : Advanced Video Codec
Профиль формата : High@L3.1
Настройки формата : CABAC / 5 Ref Frames
Параметр CABAC формата : Да
Параметр RefFrames формата : 5 кадров
Идентификатор кодека : V_MPEG4/ISO/AVC
Продолжительность : 52 м. 53 с.
Битрейт : 1847 Кбит/сек
Ширина : 1002 пикселя
Высота : 560 пикселей
Соотношение сторон : 16:9
Режим частоты кадров : Постоянный
Частота кадров : 23,976 (24000/1001) кадра/сек
Цветовое пространство : YUV
Субдискретизация насыщенности : 4:2:0
Битовая глубина : 8 бит
Тип развёртки : Прогрессивная
Бит/(Пиксели*Кадры) : 0.137
Размер потока : 699 Мбайт (85%)
Библиотека кодирования : x264 core 157 r2932 303c484
Настройки программы : cabac=1 / ref=5 / deblock=1:0:0 / analyse=0x3:0x113 / me=hex / subme=8 / psy=1 / psy_rd=1.00:0.00 / mixed_ref=1 / me_range=16 / chroma_me=1 / trellis=2 / 8x8dct=1 / cqm=0 / deadzone=21,11 / fast_pskip=1 / chroma_qp_offset=-2 / threads=12 / lookahead_threads=2 / sliced_threads=0 / nr=0 / decimate=1 / interlaced=0 / bluray_compat=0 / constrained_intra=0 / bframes=3 / b_pyramid=2 / b_adapt=1 / b_bias=0 / direct=3 / weightb=1 / open_gop=0 / weightp=2 / keyint=250 / keyint_min=23 / scenecut=40 / intra_refresh=0 / rc_lookahead=50 / rc=crf / mbtree=1 / crf=19.0 / qcomp=0.60 / qpmin=0 / qpmax=69 / qpstep=4 / ip_ratio=1.40 / aq=1:1.00
Default : Да
Forced : Нет
Аудио #1
Идентификатор : 2
Формат : AC-3
Формат/Информация : Audio Coding 3
Идентификатор кодека : A_AC3
Продолжительность : 52 м. 53 с.
Вид битрейта : Постоянный
Битрейт : 192 Кбит/сек
Каналы : 2 канала
Расположение каналов : Front: L R
Частота : 48,0 КГц
Частота кадров : 31,250 кадров/сек (1536 SPF)
Битовая глубина : 16 бит
Метод сжатия : С потерями
Размер потока : 72,6 Мбайт (9%)
Заголовок : MVO Ozz-tv
Язык : Russian
ServiceKind/String : Complete Main
Default : Да
Forced : Нет
Аудио #2
Идентификатор : 3
Формат : AAC
Формат/Информация : Advanced Audio Codec
Профиль формата : LC
Идентификатор кодека : A_AAC-2
Продолжительность : 52 м. 53 с.
Битрейт : 128 Кбит/сек
Каналы : 2 канала
Расположение каналов : Front: L R
Частота : 44,1 КГц
Частота кадров : 43,066 кадра/сек (1024 SPF)
Метод сжатия : С потерями
Размер потока : 48,4 Мбайт (6%)
Язык : English
Default : Нет
Forced : Нет
Текст
Идентификатор : 4
Формат : UTF-8
Идентификатор кодека : S_TEXT/UTF8
Идентификатор кодека/Информация : UTF-8 Plain Text
Продолжительность : 52 м. 30 с.
Битрейт : 126 бит/сек
ElementCount : 686
Размер потока : 48,5 Кбайт (0%)
Заголовок : Василий Мерзляков
Язык : Russian
Default : Нет
Forced : Нет

Скриншоты

Внимание! Раздача ведётся путём добавления новых серий

Внимание! Раздача ведётся путём добавления новых серий; при каждом добавлении создаётся новый торрент. Чтобы начать докачку новой серии, пользователям необходимо сделать следующее:
(1) остановить скачивание,
(2) удалить старый торрент у себя из клиента (старые серии удалять не надо),
(3) скачать новый торрент и запустить его у себя в клиенте вместо старого, при этом указать клиенту путь в старую папку куда и должно происходить скачивание новых серий.
Ваш клиент при этом должен произвести хеширование (проверку) старой папки (если не производит сам - помогите ему сделать это), и будет докачивать только те серии которых у вас ещё нет. Старые серии при этом не удаляются, а продолжают раздаваться!
Eсли вы уже удалили старые серии, то предотвратить повторную закачку старых серий можно, отжав галочку в соответствующих местах при запуске нового торрента. По возможности, желательно не удалять старые серии как можно дольше чтобы релизёр не столько продолжал раздавать старые серии, а смог сконцентрироваться на новых.
-
[torrents24.ru].t83815.torrent 
Торрент: Зарегистрирован [ 2019-05-15 15:50 ] · 2D81DE5B8724DBDBF097EDF83C786BEEF6A3BB39

Скачать .torrent

Скачать

17 KB

Статус: проверено
Скачан: 0 раз
Размер: 821 MB
terms.php
[Профиль] [ЛС]
Показать сообщения:    
Ответить на тему

Текущее время: 21-Май 09:34

Часовой пояс: UTC + 3



Вы не можете начинать темы
Вы не можете отвечать на сообщения
Вы не можете редактировать свои сообщения
Вы не можете удалять свои сообщения
Вы не можете голосовать в опросах
Вы не можете прикреплять файлы к сообщениям
Вы можете скачивать файлы

Интересное в сети