Отпуск за период службы / Серии: 1-4 из 4 (Станислав Мареев) [2019, криминал, боевик, мелодрама, WEBRip-AVC]

Ответить на тему
Статистика раздачи
Размер:  1,59 GB   |    Зарегистрирован:  5 дней   |    Скачан:  0 раз

Полного источника не было: Никогда

 
   
 
 
Автор Сообщение

АААааа ®

Пол: Не указан

Стаж: 1 год 2 месяца

Сообщений: 303

Создавать темы 15-Май-2019 15:49

[Цитировать]

-Отпуск за период службы-- -Год выпуска: 2019
Производство: Вайт Медиа
Жанр: криминал, боевик, мелодрама
Продолжительность: ~00:46:00
Субтитры: Нет-Режиссёр: Станислав Мареев-В ролях: Игорь Новосёлов, Кристина Борейко, Оксана Чивелева, Андрей Новик, Марина Волкова, Александр Ефремов, Александр Фисенко, Павел Харланчук-Описание: Сержант-контрактник Игорь Беликов берет незапланированный отпуск, чтобы навестить якобы больного отца. Дорога домой становится для него нелегким испытанием. Спасаясь от неожиданного нападения, он убивает нескольких преступников и угоняет фургон, в котором находится ценный груз. Владельцы груза и полицейские начинают на Игоря настоящую охоту. Сыщики, в отличие от бандитов, хотят для начала разобраться, зачем Беликов взял «отпуск за период службы», ведь его отец на самом деле жив-здоров, а сестра Ира уехала на все лето в гости к подруге…-Предыдущие и альтернативные раздачи-Реклама: Нет- - -Качество: WEBRip-AVC / WEBRip 1080p
Формат: MKV
Видео кодек: H.264
Аудио кодек: AC3-Видео: MPEG-4 AVC, 768x432 (2.40:1), 25.000 fps, ~1000 kbps avg, 0.121 bit/pixel
Аудио: 48 kHz, AC3 Dolby Digital, 2/0 (L,R) ch, ~192 kbps avg-

MediaInfo

Код:Complete name : D:\Раздача\Отпуск за период службы (2019)\01 - Отпуск за период службы (2019) WEBRip-AVC_ivanes.mkv
Format : Matroska
Format version : Version 2
File size : 402 MiB
Duration : 47 min 1 s
Overall bit rate : 1 194 kb/s
Movie name : 01 - Отпуск за период службы (2019) WEBRip-AVC_ivanes
Encoded date : UTC 2019-05-14 09:53:57
Writing application : mkvmerge v4.4.0 ('Die Wiederkehr') сборка от Jan 3 2011 21:40:45
Writing library : libebml v1.0.0 + libmatroska v1.0.0
Cover : Yes
Attachments : cover.jpg
Video
ID : 1
Format : AVC
Format/Info : Advanced Video Codec
Format profile : High@L4.1
Format settings, CABAC : Yes
Format settings, RefFrames : 10 frames
Codec ID : V_MPEG4/ISO/AVC
Duration : 47 min 1 s
Bit rate : 1 000 kb/s
Width : 768 pixels
Height : 432 pixels
Display aspect ratio : 16:9
Frame rate mode : Constant
Frame rate : 25.000 FPS
Color space : YUV
Chroma subsampling : 4:2:0
Bit depth : 8 bits
Scan type : Progressive
Bits/(Pixel*Frame) : 0.121
Stream size : 329 MiB (82%)
Title : Rip by ivanes
Writing library : x264 core 157 r2969 d4099dd
Encoding settings : cabac=1 / ref=10 / deblock=1:-3:-3 / analyse=0x3:0x113 / me=umh / subme=8 / psy=1 / psy_rd=1.00:0.00 / mixed_ref=1 / me_range=32 / chroma_me=1 / trellis=2 / 8x8dct=1 / cqm=0 / deadzone=21,11 / fast_pskip=0 / chroma_qp_offset=-2 / threads=13 / lookahead_threads=3 / sliced_threads=0 / nr=0 / decimate=1 / interlaced=0 / bluray_compat=0 / constrained_intra=0 / bframes=10 / b_pyramid=2 / b_adapt=2 / b_bias=0 / direct=1 / weightb=1 / open_gop=0 / weightp=2 / keyint=250 / keyint_min=25 / scenecut=40 / intra_refresh=0 / rc_lookahead=60 / rc=2pass / mbtree=0 / bitrate=1000 / ratetol=1.0 / qcomp=0.60 / qpmin=0 / qpmax=69 / qpstep=4 / cplxblur=20.0 / qblur=0.5 / vbv_maxrate=50000 / vbv_bufsize=62500 / nal_hrd=none / filler=0 / ip_ratio=1.40 / pb_ratio=1.30 / aq=1:1.00
Default : Yes
Forced : No
Statistics Tags Issue : mkvmerge v10.0.0 ('To Drown In You') 64bit 2019-05-14 09:42:51 / mkvmerge v4.4.0 ('Die Wiederkehr') сборка от Jan 3 2011 21:40:45 2019-05-14 09:53:57
FromStats_BitRate : 1000011
FromStats_Duration : 00:47:01.520000000
FromStats_FrameCount : 70538
FromStats_StreamSize : 352694028
Audio
ID : 2
Format : AC-3
Format/Info : Audio Coding 3
Format settings, Endianness : Big
Codec ID : A_AC3
Duration : 47 min 1 s
Bit rate mode : Constant
Bit rate : 192 kb/s
Channel(s) : 2 channels
Channel positions : Front: L R
Sampling rate : 48.0 kHz
Frame rate : 31.250 FPS (1536 SPF)
Bit depth : 16 bits
Compression mode : Lossy
Stream size : 64.6 MiB (16%)
Language : Russian
Service kind : Complete Main
Default : Yes
Forced : No

Скриншоты

[torrents24.ru].t83814.torrent 
Торрент: Зарегистрирован [ 2019-05-15 15:50 ] · 4B2DC5F07304BC6CA735CFA8C6203398B8D6DC57

Скачать .torrent

Скачать

17 KB

Статус: проверено
Скачан: 0 раз
Размер: 1,59 GB
terms.php
[Профиль] [ЛС]
Показать сообщения:    
Ответить на тему

Текущее время: 21-Май 09:35

Часовой пояс: UTC + 3



Вы не можете начинать темы
Вы не можете отвечать на сообщения
Вы не можете редактировать свои сообщения
Вы не можете удалять свои сообщения
Вы не можете голосовать в опросах
Вы не можете прикреплять файлы к сообщениям
Вы можете скачивать файлы

Интересное в сети