Пробуждение смерти / Wake of Death (Филипп Мартинез / Philippe Martinez) [2004, Великобритания, Франция, Германия, Испания, ЮАР, боевик, криминал, BDRip] AVO (Сергей Визгунов) + AVO (Андрей Дольский)

Ответить на тему
Статистика раздачи
Размер:  1,47 GB   |    Зарегистрирован:  2 месяца 8 дней   |    Скачан:  0 раз

Полного источника не было: Никогда

 
   
 
 
Автор Сообщение

Ведьмочка ®

Пол: Не указан

Стаж: 1 год 5 месяцев

Сообщений: 132

Создавать темы 15-Май-2019 15:49

[Цитировать]

Пробуждение смерти / Wake of Death
Страна: Великобритания, Франция, Германия, Испания, ЮАР
Жанр: боевик, криминал
Год выпуска: 2004
Продолжительность: 01:30:36

Перевод: Авторский (одноголосый закадровый) Сергей Визгунов
Перевод 2: Авторский (одноголосый закадровый) Андрей Дольский
Субтитры: нет
Режиссер: Филипп Мартинез / Philippe Martinez
В ролях: Ван Дамм, Саймон Ям, Филип Тан, Валери Тиан, Тони Шиена, Клод Эрнандез, Лиза Кинг, Энтони Фриджон, Дэнни Кеог
Описание: Преступник со стажем Бен Арчер решает отойти от дел и начать спокойную жизнь. Но его планам не суждено сбыться. В один из дней добродушная жена Бена разрешает пожить в их доме некоторое время молоденькой азиатке Ким. Семья Арчеров не догадывается, что девушка – дочь босса китайской мафии, отправившего по ее следу группу наемников. В один из дней китайские головорезы находят Ким в доме Арчеров. Девушке и сыну Бена удается спастись, но его жена погибает от рук наемных убийц. Бен решает отомстить китайской триаде за смерть любимой супруги...

Сэмпл: http://multi-up.com/1232092
Качество видео: BDRip (Исходник BDRemux 1080p)
Формат видео: AVI
Видео: XviD 73, 720x400, (16:9), 23,976 fps, 1697 Кбит/с, 8 бит, 0.25 bit/pixel
Аудио: Русский (АС3, 2 ch (Front: L R), 48,0 KHz, 224 Kbps) Сергей Визгунов
Аудио 2: Русский (АС3, 6 ch (Front: L C R, Side: L R, LFE), 48,0 KHz, 384 Kbps) Андрей Дольский

MediaInfo

Общее
Полное имя : D:\Фильмы на трекер\Пробуждение смерти (боевик, криминал 2004 год).avi
Формат : AVI
Формат/Информация : Audio Video Interleave
Размер файла : 1,47 Гбайт
Продолжительность : 1 ч. 30 м.
Общий поток : 2319 Кбит/сек
Программа кодирования : VirtualDubMod 1.5.10.2 (build 2540/release)
Библиотека кодирования : VirtualDubMod build 2540/release
Видео
Идентификатор : 0
Формат : MPEG-4 Visual
Профиль формата : Advanced Simple@L5
Параметр BVOP формата : 2
Параметр QPel формата : Нет
Параметр GMC формата : Без точки перехода
Параметр матрицы формата : Выборочная
Идентификатор кодека : XVID
Идентификатор кодека/Подсказка : XviD
Продолжительность : 1 ч. 30 м.
Битрейт : 1697 Кбит/сек
Ширина : 720 пикселей
Высота : 400 пикселей
Соотношение сторон : 16:9
Частота кадров : 23,976 (23976/1000) кадра/сек
Цветовое пространство : YUV
Субдискретизация насыщенности : 4:2:0
Битовая глубина : 8 бит
Тип развёртки : Прогрессивная
Метод сжатия : С потерями
Бит/(Пиксели*Кадры) : 0.246
Размер потока : 1,07 Гбайт (73%)
Библиотека кодирования : XviD 73
Аудио #1
Идентификатор : 1
Формат : AC-3
Формат/Информация : Audio Coding 3
Расширение режима : CM (complete main)
Параметр Endianness формата : Big
Идентификатор кодека : 2000
Продолжительность : 1 ч. 30 м.
Вид битрейта : Постоянный
Битрейт : 224 Кбит/сек
Каналы : 2 канала
Расположение каналов : Front: L R
Частота : 48,0 КГц
Частота кадров : 31,250 кадров/сек (1536 spf)
Метод сжатия : С потерями
Размер потока : 145 Мбайт (10%)
Выравнивание : Разделение по промежуткам
Продолжительность промежутка : 42 мс. (1,00 видеокадр)
Время предзагрузки промежутка : 500 мс.
Аудио #2
Идентификатор : 2
Формат : AC-3
Формат/Информация : Audio Coding 3
Расширение режима : CM (complete main)
Параметр Endianness формата : Big
Идентификатор кодека : 2000
Продолжительность : 1 ч. 30 м.
Вид битрейта : Постоянный
Битрейт : 384 Кбит/сек
Каналы : 6 каналов
Расположение каналов : Front: L C R, Side: L R, LFE
Частота : 48,0 КГц
Частота кадров : 31,250 кадров/сек (1536 spf)
Метод сжатия : С потерями
Размер потока : 249 Мбайт (17%)
Выравнивание : Разделение по промежуткам
Продолжительность промежутка : 42 мс. (1,00 видеокадр)
Время предзагрузки промежутка : 500 мс.

Скриншот c названием фильма

Скриншоты

[torrents24.ru].t83813.torrent 
Торрент: Зарегистрирован [ 2019-05-15 15:50 ] · B4C49A8811D5DB753B85F34701F177F09984BA7A

Скачать .torrent

Скачать

15 KB

Статус: проверено
Скачан: 0 раз
Размер: 1,47 GB
terms.php
[Профиль] [ЛС]
Показать сообщения:    
Ответить на тему

Текущее время: 24-Июл 08:23

Часовой пояс: UTC + 3



Вы не можете начинать темы
Вы не можете отвечать на сообщения
Вы не можете редактировать свои сообщения
Вы не можете удалять свои сообщения
Вы не можете голосовать в опросах
Вы не можете прикреплять файлы к сообщениям
Вы можете скачивать файлы

Интересное в сети