(Blues Rock) [WEB] Pristine - Ninja - 2017, FLAC (tracks), lossless

Ответить на тему
Статистика раздачи
Размер:  389 MB   |    Зарегистрирован:  8 дней   |    Скачан:  0 раз
Сидов:  3  [  0 KB/s  ]  
 
   
 
 
Автор Сообщение

тошик ®

Пол: Не указан

Стаж: 1 год 2 месяца

Сообщений: 68

Создавать темы 12-Май-2019 16:44

[Цитировать]


Pristine
Ninja





• Жанр: Blues Rock
• Носитель: WEB
• Год издания: 2017
• Страна: Norway
• Аудиокодек: FLAC (*.flac)
• Тип рипа: tracks
• Продолжительность: 00:59:52
• Источник:
internet
• Наличие сканов: front

01 - You Are the One (00:03:20)
02 - Sophia (00:03:02)
03 - The Perfect Crime (00:06:02)
04 - The Rebel Song (00:05:14)
05 - The Parade (00:04:36)
06 - Ghost Chase (00:04:04)
07 - Ninja (00:03:26)
08 - Jekyll & Hyde (00:07:14)
09 - Forget (00:03:02)
10 - Ocean (00:02:42)
11 - California (Live) (00:06:17)
12 - No Regret (Live) (00:10:48)--

• Лог DRM •

foobar2000 1.4.2 / Dynamic Range Meter 1.1.1
log date: 2019-05-11 14:30:57
--------------------------------------------------------------------------------
Analyzed: Pristine / Ninja
--------------------------------------------------------------------------------
DR Peak RMS Duration Track
--------------------------------------------------------------------------------
DR5 0.00 dB -6.90 dB 3:20 01-You Are the One
DR6 0.00 dB -7.37 dB 3:03 02-Sophia
DR5 0.00 dB -8.40 dB 6:02 03-The Perfect Crime
DR6 0.00 dB -7.74 dB 5:14 04-The Rebel Song
DR6 0.00 dB -7.20 dB 4:37 05-The Parade
DR7 -0.16 dB -9.65 dB 4:04 06-Ghost Chase
DR6 0.00 dB -7.06 dB 3:27 07-Ninja
DR6 -0.23 dB -9.21 dB 7:14 08-Jekyll & Hyde
DR10 -0.47 dB -15.07 dB 3:03 09-Forget
DR10 -3.11 dB -15.90 dB 2:43 10-Ocean
DR7 -1.29 dB -8.69 dB 6:17 11-California (Live)
DR8 -1.27 dB -12.08 dB 10:48 12-No Regret (Live)
--------------------------------------------------------------------------------
Number of tracks: 12
Official DR value: DR7
Samplerate: 44100 Hz
Channels: 2
Bits per sample: 16
Bitrate: 840 kbps
Codec: FLAC
================================================================================
-

• Лог проверки качества •

-----------------------
DON'T MODIFY THIS FILE
-----------------------
PERFORMER: auCDtect Task Manager, ver. 1.6.0 RC1 build 1.6.0.1
Copyright (c) 2008-2010 y-soft. All rights reserved
http://y-soft.org
ANALYZER: auCDtect: CD records authenticity detector, version 0.8.2
Copyright (c) 2004 Oleg Berngardt. All rights reserved.
Copyright (c) 2004 Alexander Djourik. All rights reserved.
FILE: 12 - No Regret (Live).flac
Size: 68156026 Hash: 2AA08900F20458C03BECBDA24CC38E08 Accuracy: -m8
Conclusion: CDDA 100%
Signature: 7349566B2D8D064DD5F1AE77183867EE07410699
FILE: 11 - California (Live).flac
Size: 43677569 Hash: 82688B16A01CA5D57308EFD6D74C484E Accuracy: -m8
Conclusion: CDDA 100%
Signature: CFBCDC0F3F0866984448AAE83152F5BCA31A5878
FILE: 10 - Ocean.flac
Size: 15407028 Hash: 811BD8CAC298D8D117354DAB7B086F18 Accuracy: -m8
Conclusion: CDDA 100%
Signature: 5985F4F62610DEB0373E6629F396F12D0B783D8D
FILE: 09 - Forget.flac
Size: 16700619 Hash: 7813E14734E67FDD930BE7D3EB1DB93F Accuracy: -m8
Conclusion: CDDA 100%
Signature: 18CFF5C15113833C3DF84E5B72F1FC3EFA6AF169
FILE: 08 - Jekyll & Hyde.flac
Size: 49260576 Hash: A357B7CF9D972A5F61AD181BCCA0BB3F Accuracy: -m8
Conclusion: CDDA 100%
Signature: 54C70A703F20594FD2B8F7184459A08FEE628E54
FILE: 07 - Ninja.flac
Size: 25092099 Hash: 3E07F38BE3E277FEF7EB701CE3C48BA1 Accuracy: -m8
Conclusion: CDDA 100%
Signature: FEF64417500FCD373595D9BFE411811029AC8457
FILE: 06 - Ghost Chase.flac
Size: 28194726 Hash: 6AAAB53B92AEE1A3093B477A19A1A02B Accuracy: -m8
Conclusion: CDDA 100%
Signature: 97BEB7584A80ED0C33680D712CB6102F0F92729D
FILE: 05 - The Parade.flac
Size: 34249990 Hash: 9188ABE188771F6574E6D695838D3CAB Accuracy: -m8
Conclusion: CDDA 100%
Signature: 88AE545038EA286E1549C6F00E03C0CBF2E65DDC
FILE: 04 - The Rebel Song.flac
Size: 38511395 Hash: 60ED2BD627EBCB36F8611F7569998B6D Accuracy: -m8
Conclusion: CDDA 100%
Signature: 34A3598F7D7C84F949278E9BA76F9962A3420B3B
FILE: 03 - The Perfect Crime.flac
Size: 40599586 Hash: 53286F87E118ADD54ABA6095054A3183 Accuracy: -m8
Conclusion: CDDA 100%
Signature: B3043FF44B78CE54371FF316CE0F0EB7F73FD47D
FILE: 02 - Sophia.flac
Size: 22617177 Hash: B7717C9791874D325623B9577B7084A7 Accuracy: -m8
Conclusion: CDDA 100%
Signature: 028E1AD7DC0A880D5752733BAB5B5B84F1005D8C
FILE: 01 - You Are the One.flac
Size: 24582041 Hash: 3767CF111A7A17545B9BBB749C65B6FA Accuracy: -m8
Conclusion: CDDA 100%
Signature: 284115DDB456D75B1F94EB2DFF0001A1F817A533
-
[torrents24.ru].t83550.torrent 
Торрент: Зарегистрирован [ 2019-05-12 16:45 ] · A74A5DA35A42B9155F80E2021A4E9CF2ACE34C5D

Скачать .torrent

Скачать

16 KB

Статус: проверено
Скачан: 0 раз
Размер: 389 MB
terms.php
[Профиль] [ЛС]
Показать сообщения:    
Ответить на тему

Текущее время: 21-Май 10:14

Часовой пояс: UTC + 3



Вы не можете начинать темы
Вы не можете отвечать на сообщения
Вы не можете редактировать свои сообщения
Вы не можете удалять свои сообщения
Вы не можете голосовать в опросах
Вы не можете прикреплять файлы к сообщениям
Вы можете скачивать файлы

Интересное в сети