Девушка с коробкой (Борис Барнет) [1927, лирическая комедия, немой, DVDRip]

Ответить на тему
Статистика раздачи
Размер:  1,09 GB   |    Зарегистрирован:  2 месяца 13 дней   |    Скачан:  0 раз

Полного источника не было: Никогда

 
   
 
 
Автор Сообщение

Болт ®

Пол: Не указан

Стаж: 1 год 5 месяцев

Сообщений: 199

Создавать темы 10-Май-2019 16:39

[Цитировать]

Девушка с коробкой

Жанр: лирическая комедия, немой
Год выпуска: 1927
Продолжительность: 01:05:14

Режиссёр: Борис Барнет
В ролях: Анна Стэн, Владимир Михайлов, Владимир Фогель, Иван Коваль-Самборский, Серафима Бирман, Павел Поль, Ева Милютина, Владимир Попов
Описание: Одна из первых работ Бориса Барнета. Поставленная с целью пропаганды государственных выигрышных займов, комедия «интересна своими новаторскими попытками в разработке характеров героев, привлекает лиризмом повествования» (как значится в титрах восстановленного и озвученного в 1968 г. фильма). «Вся её атмосфера, каждая её подробность пронизана той лёгкостью дыхания, той юной непосредственностью, что даёт картине, помимо всего остального, добавочный запас прочности, долговечности. Не сатира, сильная своей социальной, политической, общественной злободневностью. Не старая добрая „комическая“ — каскад безотказных трюков… Не просто комедия нравов — бытовая… Первая лирическая комедия».
Её герои — молодой провинциал, приехавший в Москву на заработки, юная москвичка и сама Москва — живая, шумная, пёстрая, разводящая и сводящая влюблённых на своих многолюдных улицах. Ничто не может помешать их счастью, даже злополучный квартирный вопрос. А облигация выигрышного займа, которой расплатилась жадная хозяйка с девушкой, выигрывает 25 000 рублей — огромные деньги по тем временам!

Сэмпл
Качество видео: DVDRip
Формат видео: AVI
Видео: 640x496 (1.29:1), 25 fps, XviD build 73 ~2186 kbps avg, 0.28 bit/pixel
Аудио: 48 kHz, AC3 Dolby Digital, 2/0 (L,R) ch, ~192 kbps

MediaInfo

General
Complete name : H:\Девушка.с.коробкой.1927.dvdrip_[1.46]_[teko].avi
Format : AVI
Format/Info : Audio Video Interleave
File size : 1.09 GiB
Duration : 1h 5mn
Overall bit rate : 2 388 Kbps
Writing application : VirtualDubMod 1.5.10.3 | www.virtualdub-fr.org || (build 2550/release)
Writing library : VirtualDubMod build 2550/release
Video
ID : 0
Format : MPEG-4 Visual
Format profile : Advanced Simple@L5
Format settings, BVOP : 2
Format settings, QPel : No
Format settings, GMC : No warppoints
Format settings, Matrix : Custom
Codec ID : XVID
Codec ID/Hint : XviD
Duration : 1h 5mn
Bit rate : 2 187 Kbps
Width : 640 pixels
Height : 496 pixels
Display aspect ratio : 1.290
Frame rate : 25.000 fps
Color space : YUV
Chroma subsampling : 4:2:0
Bit depth : 8 bits
Scan type : Progressive
Compression mode : Lossy
Bits/(Pixel*Frame) : 0.276
Stream size : 1 020 MiB (92%)
Writing library : XviD 73
Audio
ID : 1
Format : AC-3
Format/Info : Audio Coding 3
Mode extension : CM (complete main)
Format settings, Endianness : Big
Codec ID : 2000
Duration : 1h 5mn
Bit rate mode : Constant
Bit rate : 192 Kbps
Channel(s) : 2 channels
Channel positions : Front: L R
Sampling rate : 48.0 KHz
Frame rate : 31.250 fps (1536 spf)
Compression mode : Lossy
Stream size : 89.6 MiB (8%)
Alignment : Split accross interleaves
Interleave, duration : 40 ms (1.00 video frame)
Interleave, preload duratio : 500 ms
Релиз группы:
--
[torrents24.ru].t83373.torrent 
Торрент: Зарегистрирован [ 2019-05-10 16:40 ] · D715D37205EC32F1013051BBBCDE6F53B27BAB2D

Скачать .torrent

Скачать

11 KB

Статус: проверено
Скачан: 0 раз
Размер: 1,09 GB
terms.php
[Профиль] [ЛС]
Показать сообщения:    
Ответить на тему

Текущее время: 24-Июл 07:30

Часовой пояс: UTC + 3



Вы не можете начинать темы
Вы не можете отвечать на сообщения
Вы не можете редактировать свои сообщения
Вы не можете удалять свои сообщения
Вы не можете голосовать в опросах
Вы не можете прикреплять файлы к сообщениям
Вы можете скачивать файлы

Интересное в сети