(Chanson) [CD] Слава Медяник - Шкурный вопрос - 1996, FLAC (image+.cue), lossless

Ответить на тему
Статистика раздачи
Размер:  388 MB   |    Зарегистрирован:  12 дней   |    Скачан:  0 раз

Полного источника не было: Никогда

 
   
 
 
Автор Сообщение

Камилла ®

Пол: Не указан

Стаж: 1 год 2 месяца

Сообщений: 58

Создавать темы 08-Май-2019 16:38

[Цитировать]

Слава Медяник / Шкурный вопрос Жанр: Chanson
Носитель: CD
Страна-производитель диска (релиза): Германия (Polygram GmbH)
Год издания: 1996
Издатель (лейбл): Solo Florentin Music
Страна исполнителя (группы): Россия
Аудиокодек: FLAC (*.flac)
Тип рипа: image+.cue
Продолжительность: 01:02:23
Источник: собственный рип [Антициклон]Наличие сканов в содержимом раздачи: да, только CD
-Треклист:
01. Карусель
02. Кралечка
03. Маленький русский остров
04. Звёзды хрустальные
05. Ханыга
06. Воображение
07. Я сам по себе, ты сама по себе
08. Тёплая шаль
09. Дзынзара
10. Шкурный вопрос
11. Вьюжится от холода ночь...
12. Сашка
13. Последнее письмо
14. Табачный дым
15. Вьюга

Лог создания рипа

Exact Audio Copy V1.3 from 2. September 2016
Отчёт EAC об извлечении, выполненном 8. мая 2019, 9:43
Слава Медяник / Шкурный вопрос
Дисковод: ASUS DRW-24B5ST Adapter: 1 ID: 0
Режим чтения : Достоверность
Использование точного потока : Да
Отключение кэша аудио : Да
Использование указателей C2 : Нет
Коррекция смещения при чтении : 6
Способность читать области Lead-in и Lead-out : Нет
Заполнение пропущенных сэмплов тишиной : Да
Удаление блоков с тишиной в начале и конце : Нет
При вычислениях CRC использовались нулевые сэмплы : Да
Интерфейс : Встроенный Win32-интерфейс для Win NT/2000
Выходной формат : Пользовательский кодировщик
Выбранный битрейт : 896 kBit/s
Качество : Высокий
Добавление ID3-тега : Да
Утилита сжатия : C:\Program Files (x86)\Exact Audio Copy\Flac\flac.exe
Дополнительные параметры : -V -8 -T "Date=%year%" -T "Genre=%genre%" %source%
TOC извлечённого CD
Трек | Старт | Длительность | Начальный сектор | Конечный сектор
---------------------------------------------------------------------
1 | 0:00.00 | 4:21.67 | 0 | 19641
2 | 4:21.67 | 3:04.73 | 19642 | 33514
3 | 7:26.65 | 4:46.25 | 33515 | 54989
4 | 12:13.15 | 3:54.50 | 54990 | 72589
5 | 16:07.65 | 3:13.52 | 72590 | 87116
6 | 19:21.42 | 4:34.50 | 87117 | 107716
7 | 23:56.17 | 3:37.73 | 107717 | 124064
8 | 27:34.15 | 4:00.17 | 124065 | 142081
9 | 31:34.32 | 3:13.58 | 142082 | 156614
10 | 34:48.15 | 4:02.65 | 156615 | 174829
11 | 38:51.05 | 5:19.07 | 174830 | 198761
12 | 44:10.12 | 3:57.10 | 198762 | 216546
13 | 48:07.22 | 4:46.45 | 216547 | 238041
14 | 52:53.67 | 4:31.00 | 238042 | 258366
15 | 57:24.67 | 4:58.33 | 258367 | 280749
Характеристики диапазона извлечения и сообщения об ошибках
Выбранный диапазон
Имя файла J:\Антициклон\Слава Медяник - Шкурный вопрос (1996, Germany)\Слава Медяник - Шкурный вопрос.wav
Пиковый уровень 100.0 %
Скорость извлечения 8.9 X
Качество диапазона 99.9 %
CRC теста AF3DDB0D
CRC копии AF3DDB0D
Копирование... OK
Ошибок не произошло
AccurateRip: сводка
Трек 1 отсутствует в базе данных
Трек 2 отсутствует в базе данных
Трек 3 отсутствует в базе данных
Трек 4 отсутствует в базе данных
Трек 5 отсутствует в базе данных
Трек 6 отсутствует в базе данных
Трек 7 отсутствует в базе данных
Трек 8 отсутствует в базе данных
Трек 9 отсутствует в базе данных
Трек 10 отсутствует в базе данных
Трек 11 отсутствует в базе данных
Трек 12 отсутствует в базе данных
Трек 13 отсутствует в базе данных
Трек 14 отсутствует в базе данных
Трек 15 отсутствует в базе данных
Ни одного трека нет в базе AccurateRip
Конец отчёта
---- CUETools DB Plugin V2.1.6
[CTDB TOCID: M5ULwwflntGkSjZqzV6jfB7cgac-] disk not present in database
Submit result: M5ULwwflntGkSjZqzV6jfB7cgac- has been uploaded
==== Контрольная сумма отчёта FEDE2C7F4A3F386C424CFD450E55E1E72CC802FB200CDE67AF837876F53AB547 ====

Лог проверки качества

-----------------------
DON'T MODIFY THIS FILE
-----------------------
PERFORMER: auCDtect Task Manager, ver. 1.6.0 RC1 build 1.6.0.1
Copyright (c) 2008-2010 y-soft. All rights reserved
http://y-soft.org
ANALYZER: auCDtect: CD records authenticity detector, version 0.8.2
Copyright (c) 2004 Oleg Berngardt. All rights reserved.
Copyright (c) 2004 Alexander Djourik. All rights reserved.
FILE: Слава Медяник - Шкурный вопрос.flac
Size: 397854267 Hash: 0F7AA8EB724ABB89B675A303A7983A3A Accuracy: -m0
Conclusion: CDDA 100%
Signature: E4470BBB489B8925DD9744F06320B0930D511851

Скриншот спектра частот

[torrents24.ru].t83249.torrent 
Торрент: Зарегистрирован [ 2019-05-08 16:40 ] · 5122CC7BB4A7824B58FFFB0D61C2E24BECC1235F

Скачать .torrent

Скачать

16 KB

Статус: проверено
Скачан: 0 раз
Размер: 388 MB
terms.php
[Профиль] [ЛС]
Показать сообщения:    
Ответить на тему

Текущее время: 21-Май 09:34

Часовой пояс: UTC + 3



Вы не можете начинать темы
Вы не можете отвечать на сообщения
Вы не можете редактировать свои сообщения
Вы не можете удалять свои сообщения
Вы не можете голосовать в опросах
Вы не можете прикреплять файлы к сообщениям
Вы можете скачивать файлы

Интересное в сети