Зомби по имени Шон / Shaun of the Dead (Эдгар Райт / Edgar Wright) [2004, Великобритания, Франция, комедия, ужасы, WEBRip-AVC] [Open Matte] MVO (R5) + Sub (Rus, Eng)

Ответить на тему
Статистика раздачи
Размер:  2,18 GB   |    Зарегистрирован:  1 месяц 19 дней   |    Скачан:  0 раз

Полного источника не было: Никогда

 
   
 
 
Автор Сообщение

Ведьмочка ®

Пол: Не указан

Стаж: 1 год 4 месяца

Сообщений: 117

Создавать темы 06-Май-2019 16:34

[Цитировать]

Зомби по имени Шон / Shaun of the Dead / Open Matte
Страна: Великобритания, Франция
Жанр: комедия, ужасы
Год выпуска: 2004
Продолжительность: 01:39:32
Перевод: Профессиональный (многоголосый закадровый) R5
Субтитры: русские (полные), английские (полные)
Режиссер: Эдгар Райт / Edgar Wright
В ролях: Саймон Пегг, Кейт Эшфилд, Ник Фрост, Люси Дэвис, Дилан Моран, Николя Каннингэм, Кейр Миллс, Мэтт Джейнс, Гэвин Фергюсон, Питер Серафинович
Описание: Жизнь Шона похожа на бесконечный, тоскливый сон: нудная работа, бытовые дрязги, «разборки» с подружкой и проблемы с мамой. Единственная отдушина нашего парня — местная пивная, где он после работы «заседает» со своим другом по имени Эд.
Вы не поверите, но мертвецы залежались в могилах: они решили разнообразить своё скучное существование и собрались «прошвырнуться» по городу, полакомившись свежей живой плотью!
Начинается зомби-эпидемия с участием огромного количества распоясавшихся живых трупов, которые весьма проголодались и страстно жаждут погрызть человеческое мяско!
И кто, как Вы думаете, сможет положить конец зловещему рассвету мертвецов?! Конечно же Шон, который, ради такого случая, восстал…с дивана, вооружился битой и приготовился надавать зомби основательных тумаков! Теперь наш новоявленный супергерой должен спасти не только человечество, но и …свою коллекцию грампластинок!
Доп. информация: исходник с онлайн кинотеатра амазон. местами всплывает логотип starz
Сэмпл: http://sendfile.su/1492761

Качество видео: WEBRip-AVC
Формат видео: MKV
Видео: AVC, 1024x576, 23.976 fps, ~2685 kbps
Аудио: 48 kHz, AC3, 6 ch, 448 kbps
Формат субтитров: softsub (SRT)

MediaInfo

General
UniqueID : 176521621836904725432343856659963212772 (0x84CCD3E64B20C1CE8A6E41F6D2A273E4)
Complete name : D:\Зомби по имени Шон (2004) Open Matte.mkv
Format : Matroska
File size : 2.18 GiB
Duration : 1h 39mn
Overall bit rate : 3 133 Kbps
Encoded date : UTC 2019-05-05 14:46:26
Writing application : mkvmerge v8.3.0 ('Over the Horizon') 32bit
Writing library : libebml v1.3.1 + libmatroska v1.4.2
Video
ID : 1
Format : AVC
Format/Info : Advanced Video Codec
Format profile : High@L4.1
Format settings, CABAC : Yes
Format settings, ReFrames : 10 frames
Codec ID : V_MPEG4/ISO/AVC
Duration : 1h 39mn
Bit rate : 2 685 Kbps
Width : 1 024 pixels
Height : 576 pixels
Display aspect ratio : 16:9
Frame rate : 23.976 fps
Color space : YUV
Chroma subsampling : 4:2:0
Bit depth : 8 bits
Scan type : Progressive
Bits/(Pixel*Frame) : 0.190
Stream size : 1.82 GiB (84%)
Writing library : x264 core 157 r2969 d4099dd
Encoding settings : cabac=1 / ref=10 / deblock=1:-3:-3 / analyse=0x3:0x133 / me=umh / subme=11 / psy=1 / psy_rd=1.00:0.00 / mixed_ref=1 / me_range=32 / chroma_me=1 / trellis=2 / 8x8dct=1 / cqm=0 / deadzone=21,11 / fast_pskip=0 / chroma_qp_offset=-2 / threads=6 / lookahead_threads=1 / sliced_threads=0 / nr=0 / decimate=1 / interlaced=0 / bluray_compat=0 / constrained_intra=0 / bframes=10 / b_pyramid=2 / b_adapt=2 / b_bias=0 / direct=3 / weightb=1 / open_gop=0 / weightp=2 / keyint=250 / keyint_min=23 / scenecut=40 / intra_refresh=0 / rc_lookahead=120 / rc=2pass / mbtree=0 / bitrate=2685 / ratetol=1.0 / qcomp=0.70 / qpmin=0 / qpmax=69 / qpstep=4 / cplxblur=20.0 / qblur=0.5 / vbv_maxrate=50000 / vbv_bufsize=62500 / nal_hrd=none / filler=0 / ip_ratio=1.40 / pb_ratio=1.30 / aq=3:0.80
Language : English
Color primaries : BT.709-5, BT.1361, IEC 61966-2-4, SMPTE RP177
Transfer characteristics : BT.709-5, BT.1361
Matrix coefficients : BT.709-5, BT.1361, IEC 61966-2-4 709, SMPTE RP177
Audio
ID : 2
Format : AC-3
Format/Info : Audio Coding 3
Mode extension : CM (complete main)
Codec ID : A_AC3
Duration : 1h 39mn
Bit rate mode : Constant
Bit rate : 448 Kbps
Channel(s) : 6 channels
Channel positions : Front: L C R, Side: L R, LFE
Sampling rate : 48.0 KHz
Bit depth : 16 bits
Compression mode : Lossy
Stream size : 319 MiB (14%)
Title : MVO [R5]
Language : Russian
Text #1
ID : 3
Format : UTF-8
Codec ID : S_TEXT/UTF8
Codec ID/Info : UTF-8 Plain Text
Language : Russian
Text #2
ID : 4
Format : UTF-8
Codec ID : S_TEXT/UTF8
Codec ID/Info : UTF-8 Plain Text
Language : English

Скриншот c названием фильма

Скриншоты

Сравнения с BD



[torrents24.ru].t83019.torrent 
Торрент: Зарегистрирован [ 2019-05-06 16:35 ] · F71497B88E4A8CD48BFE3C4DD511166D02977EE2

Скачать .torrent

Скачать

11 KB

Статус: проверено
Скачан: 0 раз
Размер: 2,18 GB
terms.php
[Профиль] [ЛС]
Показать сообщения:    
Ответить на тему

Текущее время: 26-Июн 08:51

Часовой пояс: UTC + 3



Вы не можете начинать темы
Вы не можете отвечать на сообщения
Вы не можете редактировать свои сообщения
Вы не можете удалять свои сообщения
Вы не можете голосовать в опросах
Вы не можете прикреплять файлы к сообщениям
Вы можете скачивать файлы

Интересное в сети