(Детская музыка) [CD] VA - Кайт, карлыгач - 2008, FLAC (tracks+.cue), lossless

Ответить на тему
Статистика раздачи
Размер:  347 MB   |    Зарегистрирован:  16 дней   |    Скачан:  0 раз

Полного источника не было: Никогда

 
   
 
 
Автор Сообщение

Вектор ®

Пол: Не указан

Стаж: 1 год 3 месяца

Сообщений: 321

Создавать темы 04-Май-2019 16:29

[Цитировать]

Кайт, карлыгач
Жанр: Детская музыка
Носитель: CD
Страна-производитель диска: Россия, Татарстан
Год издания диска: 2008
Издатель (лейбл): Аксу Рекордс
Номер по каталогу: АксуCD08-009
Аудиокодек: FLAC (*.flac)
Тип рипа: tracks+.cue
Битрейт аудио: lossless
Продолжительность: 00:37:58
Источник: собственный рип
Наличие сканов в содержимом раздачи: да
Треклист:
01. ''Аэлита'' вокаль ансамбле hэм Голнара Вэлиева - Кайт, карлыгач
02. ''Соенеч'' вокаль ансамбле hэм Элфия Сафина - Эй, ямьле дэ шул чаклар
03. ''Соенеч'' вокаль ансамбле hэм Элфия Сафина - Муса Жэлил - халкым улы
04. Лэйсэн Ахмарова - Кубэлэк
05. Эвелина Курандо - Жину коне
06. ''Аэлита'' вокаль ансамбле hэм Голнара Вэлиева - Казаным минем, Казаным
07. Айгол Сибгатуллина - Кышкы ямь
08. Динара Галеева hэм Лэйсэн Эхмэтжанова - Кайтырсынмы икэн
09. Настя Захарова - Туган телем
10. ''Аэлита'' вокаль ансамбле hэм Голнара Вэлиева - Бэбкэлэр жыры
11. ''Аэлита'' вокаль ансамбле hэм Голнара Вэлиева - Казаным нурга коенган
12. ''Аэлита'' вокаль ансамбле hэм Голнара Вэлиева - Буген бездэ Сабантуй
13. Айгол hэм Айсылу Модэрисовалар - Эй, чабата, чабата!
14. ''Соенеч'' вокаль ансамбле hэм Элфия Сафина - Бергэ жырлашыйк эле
15. ''Аэлита'' - ''Соенеч'' вокаль ансамбеллэре hэм Аделя Батырханова - Татарстан

Лог создания рипа

Exact Audio Copy V1.3 from 2. September 2016
Отчёт EAC об извлечении, выполненном 1. мая 2019, 19:24
Various Artists / Кайт, карлыгач
Дисковод: ASUS DRW-24B5ST Adapter: 1 ID: 0
Режим чтения : Достоверность
Использование точного потока : Да
Отключение кэша аудио : Да
Использование указателей C2 : Нет
Коррекция смещения при чтении : 6
Способность читать области Lead-in и Lead-out : Нет
Заполнение пропущенных сэмплов тишиной : Да
Удаление блоков с тишиной в начале и конце : Нет
При вычислениях CRC использовались нулевые сэмплы : Да
Интерфейс : Встроенный Win32-интерфейс для Win NT/2000
Обработка зазоров : Добавлено к предыдущему треку
Выходной формат : Пользовательский кодировщик
Выбранный битрейт : 128 kBit/s
Качество : Высокий
Добавление ID3-тега : Нет
Утилита сжатия : C:\Program Files (x86)\Exact Audio Copy\Flac\flac.exe
Дополнительные параметры : -V -8 -T "Genre=%genre%" -T "Artist=%artist%" -T "Title=%title%" -T "Album=%albumtitle%" -T "Date=%year%" -T "Tracknumber=%tracknr%" -T "Comment=%comment%" %source%
TOC извлечённого CD
Трек | Старт | Длительность | Начальный сектор | Конечный сектор
---------------------------------------------------------------------
1 | 0:00.00 | 2:13.37 | 0 | 10011
2 | 2:13.37 | 1:47.64 | 10012 | 18100
3 | 4:01.26 | 2:15.15 | 18101 | 28240
4 | 6:16.41 | 2:58.68 | 28241 | 41658
5 | 9:15.34 | 3:37.45 | 41659 | 57978
6 | 12:53.04 | 3:01.57 | 57979 | 71610
7 | 15:54.61 | 2:36.37 | 71611 | 83347
8 | 18:31.23 | 4:21.24 | 83348 | 102946
9 | 22:52.47 | 1:55.19 | 102947 | 111590
10 | 24:47.66 | 1:56.73 | 111591 | 120363
11 | 26:44.64 | 1:49.10 | 120364 | 128548
12 | 28:33.74 | 2:04.12 | 128549 | 137860
13 | 30:38.11 | 2:00.72 | 137861 | 146932
14 | 32:39.08 | 2:47.07 | 146933 | 159464
15 | 35:26.15 | 2:32.25 | 159465 | 170889
Трек 1
Имя файла C:\VA - Кайт, карлыгач (2008) [FLAC]\01. ''Аэлита'' вокаль ансамбле hэм Голнара Вэлиева - Кайт, карлыгач.wav
Длина предзазора 0:00:02.00
Пиковый уровень 100.0 %
Скорость извлечения 4.3 X
Качество трека 100.0 %
CRC теста F50B46FC
CRC копии F50B46FC
Трек не обнаружен в базе AccurateRip
Копирование... OK
Трек 2
Имя файла C:\VA - Кайт, карлыгач (2008) [FLAC]\02. ''Соенеч'' вокаль ансамбле hэм Элфия Сафина - Эй, ямьле дэ шул чаклар.wav
Длина предзазора 0:00:02.00
Пиковый уровень 100.0 %
Скорость извлечения 3.4 X
Качество трека 99.9 %
CRC теста 4B6CC314
CRC копии 4B6CC314
Трек не обнаружен в базе AccurateRip
Копирование... OK
Трек 3
Имя файла C:\VA - Кайт, карлыгач (2008) [FLAC]\03. ''Соенеч'' вокаль ансамбле hэм Элфия Сафина - Муса Жэлил - халкым улы.wav
Длина предзазора 0:00:02.00
Пиковый уровень 100.0 %
Скорость извлечения 4.8 X
Качество трека 100.0 %
CRC теста D7A51DF1
CRC копии D7A51DF1
Трек не обнаружен в базе AccurateRip
Копирование... OK
Трек 4
Имя файла C:\VA - Кайт, карлыгач (2008) [FLAC]\04. Лэйсэн Ахмарова - Кубэлэк.wav
Длина предзазора 0:00:02.00
Пиковый уровень 100.0 %
Скорость извлечения 5.5 X
Качество трека 100.0 %
CRC теста 476EC715
CRC копии 476EC715
Трек не обнаружен в базе AccurateRip
Копирование... OK
Трек 5
Имя файла C:\VA - Кайт, карлыгач (2008) [FLAC]\05. Эвелина Курандо - Жину коне.wav
Длина предзазора 0:00:02.00
Пиковый уровень 100.0 %
Скорость извлечения 6.1 X
Качество трека 100.0 %
CRC теста 55388EF3
CRC копии 55388EF3
Трек не обнаружен в базе AccurateRip
Копирование... OK
Трек 6
Имя файла C:\VA - Кайт, карлыгач (2008) [FLAC]\06. ''Аэлита'' вокаль ансамбле hэм Голнара Вэлиева - Казаным минем, Казаным.wav
Длина предзазора 0:00:02.00
Пиковый уровень 100.0 %
Скорость извлечения 6.3 X
Качество трека 100.0 %
CRC теста 7B99149A
CRC копии 7B99149A
Трек не обнаружен в базе AccurateRip
Копирование... OK
Трек 7
Имя файла C:\VA - Кайт, карлыгач (2008) [FLAC]\07. Айгол Сибгатуллина - Кышкы ямь.wav
Длина предзазора 0:00:02.00
Пиковый уровень 100.0 %
Скорость извлечения 6.4 X
Качество трека 100.0 %
CRC теста F3848832
CRC копии F3848832
Трек не обнаружен в базе AccurateRip
Копирование... OK
Трек 8
Имя файла C:\VA - Кайт, карлыгач (2008) [FLAC]\08. Динара Галеева hэм Лэйсэн Эхмэтжанова - Кайтырсынмы икэн.wav
Длина предзазора 0:00:02.00
Пиковый уровень 100.0 %
Скорость извлечения 7.3 X
Качество трека 100.0 %
CRC теста 0850C242
CRC копии 0850C242
Трек не обнаружен в базе AccurateRip
Копирование... OK
Трек 9
Имя файла C:\VA - Кайт, карлыгач (2008) [FLAC]\09. Настя Захарова - Туган телем.wav
Длина предзазора 0:00:02.00
Пиковый уровень 100.0 %
Скорость извлечения 6.5 X
Качество трека 100.0 %
CRC теста EB409EEA
CRC копии EB409EEA
Трек не обнаружен в базе AccurateRip
Копирование... OK
Трек 10
Имя файла C:\VA - Кайт, карлыгач (2008) [FLAC]\10. ''Аэлита'' вокаль ансамбле hэм Голнара Вэлиева - Бэбкэлэр жыры.wav
Длина предзазора 0:00:02.00
Пиковый уровень 100.0 %
Скорость извлечения 6.7 X
Качество трека 100.0 %
CRC теста 78BFEFD6
CRC копии 78BFEFD6
Трек не обнаружен в базе AccurateRip
Копирование... OK
Трек 11
Имя файла C:\VA - Кайт, карлыгач (2008) [FLAC]\11. ''Аэлита'' вокаль ансамбле hэм Голнара Вэлиева - Казаным нурга коенган.wav
Длина предзазора 0:00:02.00
Пиковый уровень 100.0 %
Скорость извлечения 6.7 X
Качество трека 100.0 %
CRC теста BA09B1B3
CRC копии BA09B1B3
Трек не обнаружен в базе AccurateRip
Копирование... OK
Трек 12
Имя файла C:\VA - Кайт, карлыгач (2008) [FLAC]\12. ''Аэлита'' вокаль ансамбле hэм Голнара Вэлиева - Буген бездэ Сабантуй.wav
Длина предзазора 0:00:02.00
Пиковый уровень 100.0 %
Скорость извлечения 5.8 X
Качество трека 99.9 %
CRC теста 57D7856F
CRC копии 57D7856F
Трек не обнаружен в базе AccurateRip
Копирование... OK
Трек 13
Имя файла C:\VA - Кайт, карлыгач (2008) [FLAC]\13. Айгол hэм Айсылу Модэрисовалар - Эй, чабата, чабата!.wav
Длина предзазора 0:00:02.00
Пиковый уровень 100.0 %
Скорость извлечения 7.2 X
Качество трека 100.0 %
CRC теста A1147A6D
CRC копии A1147A6D
Трек не обнаружен в базе AccurateRip
Копирование... OK
Трек 14
Имя файла C:\VA - Кайт, карлыгач (2008) [FLAC]\14. ''Соенеч'' вокаль ансамбле hэм Элфия Сафина - Бергэ жырлашыйк эле.wav
Длина предзазора 0:00:02.00
Пиковый уровень 100.0 %
Скорость извлечения 7.9 X
Качество трека 100.0 %
CRC теста 26452892
CRC копии 26452892
Трек не обнаружен в базе AccurateRip
Копирование... OK
Трек 15
Имя файла C:\VA - Кайт, карлыгач (2008) [FLAC]\15. ''Аэлита'' - ''Соенеч'' вокаль ансамбеллэре hэм Аделя Батырханова - Татарстан.wav
Длина предзазора 0:00:02.00
Пиковый уровень 100.0 %
Скорость извлечения 7.9 X
Качество трека 100.0 %
CRC теста B7E7BAE8
CRC копии B7E7BAE8
Трек не обнаружен в базе AccurateRip
Копирование... OK
Ни одного трека нет в базе AccurateRip
Ошибок не произошло
Конец отчёта
==== Контрольная сумма отчёта 1C6EE55AEE8DFC56AD4C99D607CFA3486D49BBEC42AAEA242107D0520AC699E3 ====

Содержание индексной карты (.CUE)

REM DATE 2008
REM DISCID CF08E60F
REM COMMENT "ExactAudioCopy v1.3"
PERFORMER "Various Artists"
TITLE "Кайт, карлыгач"
REM COMPOSER ""
FILE "01. ''Аэлита'' вокаль ансамбле hэм Голнара Вэлиева - Кайт, карлыгач.wav" WAVE
TRACK 01 AUDIO
TITLE "Кайт, карлыгач"
PERFORMER "'Аэлита' вокаль ансамбле hэм Голнара Вэлиева"
REM COMPOSER ""
FLAGS DCP
INDEX 01 00:00:00
TRACK 02 AUDIO
TITLE "Эй, ямьле дэ шул чаклар"
PERFORMER "'Соенеч' вокаль ансамбле hэм Элфия Сафина"
REM COMPOSER ""
FLAGS DCP
INDEX 00 02:11:37
FILE "02. ''Соенеч'' вокаль ансамбле hэм Элфия Сафина - Эй, ямьле дэ шул чаклар.wav" WAVE
INDEX 01 00:00:00
TRACK 03 AUDIO
TITLE "Муса Жэлил - халкым улы"
PERFORMER "'Соенеч' вокаль ансамбле hэм Элфия Сафина"
REM COMPOSER ""
FLAGS DCP
INDEX 00 01:45:64
FILE "03. ''Соенеч'' вокаль ансамбле hэм Элфия Сафина - Муса Жэлил - халкым улы.wav" WAVE
INDEX 01 00:00:00
TRACK 04 AUDIO
TITLE "Кубэлэк"
PERFORMER "Лэйсэн Ахмарова"
REM COMPOSER ""
FLAGS DCP
INDEX 00 02:13:15
FILE "04. Лэйсэн Ахмарова - Кубэлэк.wav" WAVE
INDEX 01 00:00:00
TRACK 05 AUDIO
TITLE "Жину коне"
PERFORMER "Эвелина Курандо"
REM COMPOSER ""
FLAGS DCP
INDEX 00 02:56:68
FILE "05. Эвелина Курандо - Жину коне.wav" WAVE
INDEX 01 00:00:00
TRACK 06 AUDIO
TITLE "Казаным минем, Казаным"
PERFORMER "'Аэлита' вокаль ансамбле hэм Голнара Вэлиева"
REM COMPOSER ""
FLAGS DCP
INDEX 00 03:35:45
FILE "06. ''Аэлита'' вокаль ансамбле hэм Голнара Вэлиева - Казаным минем, Казаным.wav" WAVE
INDEX 01 00:00:00
TRACK 07 AUDIO
TITLE "Кышкы ямь"
PERFORMER "Айгол Сибгатуллина"
REM COMPOSER ""
FLAGS DCP
INDEX 00 02:59:57
FILE "07. Айгол Сибгатуллина - Кышкы ямь.wav" WAVE
INDEX 01 00:00:00
TRACK 08 AUDIO
TITLE "Кайтырсынмы икэн?"
PERFORMER "Динара Галеева hэм Лэйсэн Эхмэтжанова"
REM COMPOSER ""
FLAGS DCP
INDEX 00 02:34:37
FILE "08. Динара Галеева hэм Лэйсэн Эхмэтжанова - Кайтырсынмы икэн.wav" WAVE
INDEX 01 00:00:00
TRACK 09 AUDIO
TITLE "Туган телем"
PERFORMER "Настя Захарова"
REM COMPOSER ""
FLAGS DCP
INDEX 00 04:19:24
FILE "09. Настя Захарова - Туган телем.wav" WAVE
INDEX 01 00:00:00
TRACK 10 AUDIO
TITLE "Бэбкэлэр жыры"
PERFORMER "'Аэлита' вокаль ансамбле hэм Голнара Вэлиева"
REM COMPOSER ""
FLAGS DCP
INDEX 00 01:53:19
FILE "10. ''Аэлита'' вокаль ансамбле hэм Голнара Вэлиева - Бэбкэлэр жыры.wav" WAVE
INDEX 01 00:00:00
TRACK 11 AUDIO
TITLE "Казаным нурга коенган"
PERFORMER "'Аэлита' вокаль ансамбле hэм Голнара Вэлиева"
REM COMPOSER ""
FLAGS DCP
INDEX 00 01:54:73
FILE "11. ''Аэлита'' вокаль ансамбле hэм Голнара Вэлиева - Казаным нурга коенган.wav" WAVE
INDEX 01 00:00:00
TRACK 12 AUDIO
TITLE "Буген бездэ Сабантуй"
PERFORMER "'Аэлита' вокаль ансамбле hэм Голнара Вэлиева"
REM COMPOSER ""
FLAGS DCP
INDEX 00 01:47:10
FILE "12. ''Аэлита'' вокаль ансамбле hэм Голнара Вэлиева - Буген бездэ Сабантуй.wav" WAVE
INDEX 01 00:00:00
TRACK 13 AUDIO
TITLE "Эй, чабата, чабата!"
PERFORMER "Айгол hэм Айсылу Модэрисовалар"
REM COMPOSER ""
FLAGS DCP
INDEX 00 02:02:12
FILE "13. Айгол hэм Айсылу Модэрисовалар - Эй, чабата, чабата!.wav" WAVE
INDEX 01 00:00:00
TRACK 14 AUDIO
TITLE "Бергэ жырлашыйк эле"
PERFORMER "'Соенеч' вокаль ансамбле hэм Элфия Сафина"
REM COMPOSER ""
FLAGS DCP
INDEX 00 01:58:72
FILE "14. ''Соенеч'' вокаль ансамбле hэм Элфия Сафина - Бергэ жырлашыйк эле.wav" WAVE
INDEX 01 00:00:00
TRACK 15 AUDIO
TITLE "Татарстан"
PERFORMER "'Аэлита' - 'Соенеч' вокаль ансамбеллэре hэм Аделя Батырханова"
REM COMPOSER ""
FLAGS DCP
INDEX 00 02:45:07
FILE "15. ''Аэлита'' - ''Соенеч'' вокаль ансамбеллэре hэм Аделя Батырханова - Татарстан.wav" WAVE
INDEX 01 00:00:00

Об альбоме (сборнике)

для школьных учителей самые популярные песни.
[torrents24.ru].t82844.torrent 
Торрент: Зарегистрирован [ 2019-05-04 16:30 ] · 95C9CACB5C49A1F935BF31C68662C1E97C0E9D63

Скачать .torrent

Скачать

17 KB

Статус: проверено
Скачан: 0 раз
Размер: 347 MB
terms.php
[Профиль] [ЛС]
Показать сообщения:    
Ответить на тему

Текущее время: 21-Май 10:01

Часовой пояс: UTC + 3



Вы не можете начинать темы
Вы не можете отвечать на сообщения
Вы не можете редактировать свои сообщения
Вы не можете удалять свои сообщения
Вы не можете голосовать в опросах
Вы не можете прикреплять файлы к сообщениям
Вы можете скачивать файлы

Интересное в сети