Бэтмен: Начало / Batman Begins (Кристофер Нолан / Christopher Nolan) [2005, США, Великобритания, Боевик, Драма, Криминал, Приключения, BDRip-AVC] Dub + DVO (Superbit) + Original Eng + Sub (Rus, Eng)

Ответить на тему
Статистика раздачи
Размер:  4,93 GB   |    Зарегистрирован:  1 месяц 22 дня   |    Скачан:  0 раз

Полного источника не было: Никогда

 
   
 
 
Автор Сообщение

Ведьмочка ®

Пол: Не указан

Стаж: 1 год 4 месяца

Сообщений: 117

Создавать темы 03-Май-2019 15:24

[Цитировать]

Бэтмен: Начало / Batman Begins
Слоган: «Легенда начинается...»
Страна: США, Великобритания
Жанр: боевик, триллер, драма, криминал
Год выпуска: 2005
Продолжительность: 02:20:02
Перевод 1: Профессиональный (дублированный) Blu-ray EUR
Перевод 2: Профессиональный (двухголосый закадровый) Супербит
Оригинальная аудиодорожка: Английский
Субтитры: Русские (Полные, SDH), Английские (Full, SDH)--Режиссер: Кристофер Нолан / Christopher Nolan--В ролях: Кристиан Бэйл, Майкл Кейн, Лайам Нисон, Кэти Холмс, Гари Олдман, Киллиан Мерфи, Том Уилкинсон, Рутгер Хауэр, Кен Ватанабе, Марк Бун Джуниор, Лайнес Роуч, Морган Фриман, Ларри Холден, Герард Мерфи, Колин МакФарлэйн, Сара Стюарт, Гас Льюис, Ричард Брэйк, Рейд Сербеджия, Эмма Локхарт, Кристин Адамс...--Описание: В детстве юный наследник огромного состояния Брюс Уэйн оказался свидетелем убийства своих родителей, и тогда он решил бороться с преступностью. Спустя годы он отправляется в путешествие по миру, чтобы найти способ восстановить справедливость. Обучение у мудрого наставника боевым искусствам дает ему силу и смелость. Вернувшись в родной город, Уэйн становится Бэтменом и ведет борьбу со злом.-- | --Качество видео: BDRip-AVC
Формат: MKV
Видео: AVC, 1152x480 (2.40:1), 3696 kbps, 23.976 fps, 0.279 bit/pixel.
Аудио 1: AC3 Dolby Digital, 3/2 (L,C,R,l,r) + LFE ch, 48.0 KHz, 448 Kbps.
Аудио 2: AC3 Dolby Digital, 3/2 (L,C,R,l,r) + LFE ch, 48.0 KHz, 448 Kbps.
Аудио 3: AC3 Dolby Digital, 3/2 (L,C,R,l,r) + LFE ch, 48.0 KHz, 448 Kbps.
Формат субтитров: softsub (SRT)
[box]Сэмпл[/box]

Скриншоты

MediaInfo/x264

x264

raw [info]: 1152x480p 1:1 @ 24000/1001 fps (cfr)
x264 [info]: using SAR=1/1
x264 [info]: using cpu capabilities: MMX2 SSE2Fast SSSE3 SSE4.2 AVX
x264 [info]: profile High, level 4.1, 4:2:0, 8-bit
x264 [info]: frame I:1812 Avg QP:14.45 size: 73734
x264 [info]: frame P:42913 Avg QP:15.53 size: 36254
x264 [info]: frame B:156742 Avg QP:17.82 size: 13987
x264 [info]: consecutive B-frames: 2.9% 3.0% 7.5% 16.4% 16.6% 32.2% 6.3% 6.4% 2.0% 2.1% 1.2% 2.0% 0.5% 0.6% 0.2%
x264 [info]: mb I I16..4: 3.9% 85.4% 10.7%
x264 [info]: mb P I16..4: 1.5% 26.8% 2.1% P16..4: 27.9% 22.8% 14.3% 0.5% 0.1% skip: 4.0%
x264 [info]: mb B I16..4: 0.3% 2.3% 0.2% B16..8: 37.8% 19.9% 5.6% direct: 8.9% skip:25.0% L0:46.9% L1:40.4% BI:12.7%
x264 [info]: 8x8 transform intra:86.6% inter:60.7%
x264 [info]: coded y,uvDC,uvAC intra: 91.0% 93.9% 88.1% inter: 34.1% 38.2% 20.7%
x264 [info]: i16 v,h,dc,p: 41% 10% 11% 38%
x264 [info]: i8 v,h,dc,ddl,ddr,vr,hd,vl,hu: 11% 10% 11% 9% 12% 11% 12% 11% 14%
x264 [info]: i4 v,h,dc,ddl,ddr,vr,hd,vl,hu: 11% 8% 4% 9% 15% 14% 14% 11% 13%
x264 [info]: i8c dc,h,v,p: 57% 16% 14% 12%
x264 [info]: Weighted P-Frames: Y:4.8% UV:2.1%
x264 [info]: ref P L0: 44.6% 8.7% 17.7% 7.1% 6.0% 4.0% 3.7% 2.0% 1.9% 1.5% 1.5% 1.2% 0.1% 0.0%
x264 [info]: ref B L0: 66.6% 13.2% 6.9% 3.8% 2.8% 2.2% 1.7% 1.1% 0.9% 0.6% 0.2%
x264 [info]: ref B L1: 92.8% 7.2%
x264 [info]: kb/s:3695.70
General
Unique ID : 200653669290558064693691822591047914927 (0x96F47DB31458753CAC230BE5F2B455AF)
Complete name : Batman.Begins.(2005).mkv
Format : Matroska
Format version : Version 4
File size : 4.93 GiB
Duration : 2 h 20 min
Overall bit rate : 5 043 kb/s
Movie name : Бэтмен: Начало / Batman Begins (2005)
Encoded date : UTC 2019-04-30 12:12:25
Writing application : mkvmerge v8.1.0 ('Psychedelic Postcard') 64bit
Writing library : libebml v1.3.1 + libmatroska v1.4.2
Cover : Yes
Attachments : cover.jpg
Video
ID : 1
Format : AVC
Format/Info : Advanced Video Codec
Format profile : High@L4.1
Format settings : CABAC / 12 Ref Frames
Format settings, CABAC : Yes
Format settings, ReFrames : 12 frames
Codec ID : V_MPEG4/ISO/AVC
Duration : 2 h 20 min
Bit rate : 3 696 kb/s
Width : 1 152 pixels
Height : 480 pixels
Display aspect ratio : 2.40:1
Frame rate mode : Constant
Frame rate : 23.976 (24000/1001) FPS
Color space : YUV
Chroma subsampling : 4:2:0
Bit depth : 8 bits
Scan type : Progressive
Bits/(Pixel*Frame) : 0.279
Stream size : 3.62 GiB (73%)
Title : Batman Begins (2005) By optik.1557
Writing library : x264 core 157 r2935 545de2f
Encoding settings : cabac=1 / ref=12 / deblock=1:-3:-2 / analyse=0x3:0x133 / me=umh / subme=10 / psy=1 / psy_rd=1.05:0.01 / mixed_ref=1 / me_range=32 / chroma_me=1 / trellis=2 / 8x8dct=1 / cqm=0 / deadzone=21,11 / fast_pskip=0 / chroma_qp_offset=-4 / threads=6 / lookahead_threads=1 / sliced_threads=0 / nr=0 / decimate=1 / interlaced=0 / bluray_compat=0 / constrained_intra=0 / bframes=14 / b_pyramid=2 / b_adapt=2 / b_bias=0 / direct=1 / weightb=1 / open_gop=0 / weightp=2 / keyint=250 / keyint_min=23 / scenecut=40 / intra_refresh=0 / rc_lookahead=60 / rc=crf / mbtree=0 / crf=17.1 / qcomp=0.70 / qpmin=0 / qpmax=69 / qpstep=4 / vbv_maxrate=50000 / vbv_bufsize=62500 / crf_max=0.0 / nal_hrd=none / filler=0 / ip_ratio=1.40 / pb_ratio=1.30 / aq=3:0.85
Language : English
Default : Yes
Forced : No
Audio #1
ID : 2
Format : AC-3
Format/Info : Audio Coding 3
Commercial name : Dolby Digital
Codec ID : A_AC3
Duration : 2 h 20 min
Bit rate mode : Constant
Bit rate : 448 kb/s
Channel(s) : 6 channels
Channel layout : L R C LFE Ls Rs
Sampling rate : 48.0 kHz
Frame rate : 31.250 FPS (1536 SPF)
Bit depth : 16 bits
Compression mode : Lossy
Stream size : 449 MiB (9%)
Title : Дубляж (Blu-ray CEE)
Language : Russian
Service kind : Complete Main
Default : Yes
Forced : No
Audio #2
ID : 3
Format : AC-3
Format/Info : Audio Coding 3
Commercial name : Dolby Digital
Codec ID : A_AC3
Duration : 2 h 20 min
Bit rate mode : Constant
Bit rate : 448 kb/s
Channel(s) : 6 channels
Channel layout : L R C LFE Ls Rs
Sampling rate : 48.0 kHz
Frame rate : 31.250 FPS (1536 SPF)
Bit depth : 16 bits
Compression mode : Lossy
Stream size : 449 MiB (9%)
Title : DVO (Superbit)
Language : Russian
Service kind : Complete Main
Default : No
Forced : No
Audio #3
ID : 4
Format : AC-3
Format/Info : Audio Coding 3
Commercial name : Dolby Digital
Codec ID : A_AC3
Duration : 2 h 20 min
Bit rate mode : Constant
Bit rate : 448 kb/s
Channel(s) : 6 channels
Channel layout : L R C LFE Ls Rs
Sampling rate : 48.0 kHz
Frame rate : 31.250 FPS (1536 SPF)
Bit depth : 16 bits
Compression mode : Lossy
Stream size : 449 MiB (9%)
Title : Original
Language : English
Service kind : Complete Main
Default : No
Forced : No
Text #1
ID : 5
Format : UTF-8
Codec ID : S_TEXT/UTF8
Codec ID/Info : UTF-8 Plain Text
Duration : 2 h 9 min
Bit rate : 86 b/s
Count of elements : 1380
Stream size : 82.6 KiB (0%)
Title : Полные (R5)
Language : Russian
Default : No
Forced : No
Text #2
ID : 6
Format : UTF-8
Codec ID : S_TEXT/UTF8
Codec ID/Info : UTF-8 Plain Text
Duration : 2 h 19 min
Bit rate : 78 b/s
Count of elements : 1403
Stream size : 80.2 KiB (0%)
Title : Полные (SDI Media Group)
Language : Russian
Default : No
Forced : No
Text #3
ID : 7
Format : UTF-8
Codec ID : S_TEXT/UTF8
Codec ID/Info : UTF-8 Plain Text
Duration : 2 h 9 min
Bit rate : 83 b/s
Count of elements : 1400
Stream size : 79.9 KiB (0%)
Title : Полные
Language : Russian
Default : No
Forced : No
Text #4
ID : 8
Format : UTF-8
Codec ID : S_TEXT/UTF8
Codec ID/Info : UTF-8 Plain Text
Duration : 2 h 11 min
Bit rate : 87 b/s
Count of elements : 1452
Stream size : 84.4 KiB (0%)
Title : Полные (Е. Воронин)
Language : Russian
Default : No
Forced : No
Text #5
ID : 9
Format : UTF-8
Codec ID : S_TEXT/UTF8
Codec ID/Info : UTF-8 Plain Text
Duration : 2 h 11 min
Bit rate : 92 b/s
Count of elements : 1525
Stream size : 89.1 KiB (0%)
Title : SDH (Е. Воронин)
Language : Russian
Default : No
Forced : No
Text #6
ID : 10
Format : UTF-8
Codec ID : S_TEXT/UTF8
Codec ID/Info : UTF-8 Plain Text
Duration : 2 h 9 min
Bit rate : 51 b/s
Count of elements : 1377
Stream size : 49.3 KiB (0%)
Title : Full
Language : English
Default : No
Forced : No
Text #7
ID : 11
Format : UTF-8
Codec ID : S_TEXT/UTF8
Codec ID/Info : UTF-8 Plain Text
Duration : 2 h 9 min
Bit rate : 55 b/s
Count of elements : 1472
Stream size : 52.4 KiB (0%)
Title : SDH
Language : English
Default : No
Forced : No
Menu
00:00:00.000 : en:You're Practice
00:03:39.100 : en:More Than Just a Man
00:07:31.133 : en:What Do You Fear?
00:11:33.367 : en:Tragedy
00:16:14.667 : en:The Will to Act
00:19:43.067 : en:This House
00:24:17.768 : en:Not One of Your Good People
00:28:23.202 : en:Carmine Falcone
00:31:23.702 : en:Embrace Your Fear
00:35:51.835 : en:Gotham Must Be Destroyed
00:38:22.335 : en:Monastery Mayhem
00:41:12.535 : en:Incorruptible Symbol
00:43:05.469 : en:Nest of Bats
00:46:55.303 : en:Welcome Home
00:49:40.904 : en:Applied Sciences
00:53:23.071 : en:Gordon's Visitor
00:55:52.071 : en:Does It Come in Black?
00:57:58.972 : en:Secrets of Scary People
01:03:28.439 : en:Rattle the Cages
01:05:49.040 : en:Missing Weapon
01:08:35.040 : en:More Inside
01:11:21.707 : en:Crane's Mask
01:13:15.041 : en:Do I Look Like a Cop?
01:15:04.208 : en:Lighten Up
01:19:46.109 : en:Work to Do
01:23:49.576 : en:Arkham's Basement Secrets
01:28:57.676 : en:Winged Backup
01:32:31.243 : en:Tumbler on the Roof
01:37:43.276 : en:The Monster of Yours
01:40:27.743 : en:Dual Identities
01:45:03.243 : en:Purging Fire
01:49:25.577 : en:Inferno Rescue
01:51:22.744 : en:Spread the Word: Panic
01:54:42.712 : en:What Defines Me
01:58:04.112 : en:Catching a Train
02:01:48.212 : en:Not Kill But Not Save
02:04:53.879 : en:New Owner
02:05:59.646 : en:This Is Your Mask
02:09:10.980 : en:Calling Card
02:10:49.447 : en:End Credits
[torrents24.ru].t82693.torrent 
Торрент: Зарегистрирован [ 2019-05-03 15:25 ] · 221096C1D5AFD12A773792007A42AEF223CDB637

Скачать .torrent

Скачать

13 KB

Статус: проверено
Скачан: 0 раз
Размер: 4,93 GB
terms.php
[Профиль] [ЛС]
Показать сообщения:    
Ответить на тему

Текущее время: 26-Июн 08:50

Часовой пояс: UTC + 3



Вы не можете начинать темы
Вы не можете отвечать на сообщения
Вы не можете редактировать свои сообщения
Вы не можете удалять свои сообщения
Вы не можете голосовать в опросах
Вы не можете прикреплять файлы к сообщениям
Вы можете скачивать файлы

Интересное в сети