(Pop/Rock) [CD] Kim Carnes - Crazy In The Night [Capitol Records, CDLL-57273, Canada] - 1990, FLAC (tracks+.cue), lossless

Ответить на тему
Статистика раздачи
Размер:  289 MB   |    Зарегистрирован:  2 месяца 1 день   |    Скачан:  0 раз

Полного источника не было: Никогда

 
   
 
 
Автор Сообщение

folk ®

Пол: Не указан

Стаж: 1 год 3 месяца

Сообщений: 136

Создавать темы 24-Апр-2019 15:49

[Цитировать]

Kim Carnes / Crazy In The Night
Жанр: Pop/Rock
Носитель: CD
Страна-производитель диска (релиза): Canada
Год издания: 1990
Издатель (лейбл): Capitol Records
Номер по каталогу: CDLL-57273
Страна исполнителя (группы): USA
Аудиокодек: FLAC (*.flac)
Тип рипа: tracks+.cue
Продолжительность: 00:48:40
Источник: RED/djrichiep
Наличие сканов в содержимом раздачи: нет

Треклист:
01. More Love
02. Cry Like A Baby
03. Mistaken Identity
04. Draw Of The Cards
05. Does It Make You Remember
06. Voyeur
07. I Pretend
08. Invisible Hands
09. You Make My Heart Beat Faster
10. Divided Hearts
11. Hurricane
12. Crazy In The Night

Лог создания рипа

Exact Audio Copy V1.3 from 2. September 2016
EAC extraction logfile from 5. December 2018, 20:04
Kim Carnes / Crazy In The Night
Used drive : HL-DT-STDVDRAM GP50NB40 Adapter: 1 ID: 0
Read mode : Secure
Utilize accurate stream : Yes
Defeat audio cache : Yes
Make use of C2 pointers : No
Read offset correction : 6
Overread into Lead-In and Lead-Out : No
Fill up missing offset samples with silence : Yes
Delete leading and trailing silent blocks : No
Null samples used in CRC calculations : Yes
Used interface : Native Win32 interface for Win NT & 2000
Gap handling : Appended to previous track
Used output format : User Defined Encoder
Selected bitrate : 1024 kBit/s
Quality : High
Add ID3 tag : No
Command line compressor : C:\Program Files (x86)\Exact Audio Copy\FLAC\FLAC.EXE
Additional command line options : -8 -V -T "ARTIST=%artist%" -T "TITLE=%title%" -T "ALBUM=%albumtitle%" -T "DATE=%year%" -T "TRACKNUMBER=%tracknr%" -T "GENRE=%genre%" -T "PERFORMER=%albuminterpret%" -T "COMPOSER=%composer%" %haslyrics%--tag-from-file=LYRICS="%lyricsfile%"%haslyrics% -T "ALBUMARTIST=%albumartist%" -T "DISCNUMBER=%cdnumber%" -T "TOTALDISCS=%totalcds%" -T "TOTALTRACKS=%numtracks%" -T "COMMENT=%comment%" %source% -o %dest%
TOC of the extracted CD
Track | Start | Length | Start sector | End sector
---------------------------------------------------------
1 | 0:00.33 | 3:36.30 | 33 | 16262
2 | 3:36.63 | 3:04.12 | 16263 | 30074
3 | 6:41.00 | 4:46.03 | 30075 | 51527
4 | 11:27.03 | 4:52.05 | 51528 | 73432
5 | 16:19.08 | 3:59.12 | 73433 | 91369
6 | 20:18.20 | 3:58.28 | 91370 | 109247
7 | 24:16.48 | 5:17.42 | 109248 | 133064
8 | 29:34.15 | 3:12.30 | 133065 | 147494
9 | 32:46.45 | 3:59.50 | 147495 | 165469
10 | 36:46.20 | 4:02.45 | 165470 | 183664
11 | 40:48.65 | 4:28.55 | 183665 | 203819
12 | 45:17.45 | 3:35.53 | 203820 | 219997
Track 1
Filename G:\(qmaketorrent)\Kim Carnes - Crazy In The Night [1990] [FLAC] {CDLL-57273}\01 - More Love.wav
Pre-gap length 0:00:02.44
Peak level 96.4 %
Extraction speed 1.1 X
Track quality 100.0 %
Test CRC 7DD520FC
Copy CRC 7DD520FC
Accurately ripped (confidence 4) [2E34453D] (AR v2)
Copy OK
Track 2
Filename G:\(qmaketorrent)\Kim Carnes - Crazy In The Night [1990] [FLAC] {CDLL-57273}\02 - Cry Like A Baby.wav
Pre-gap length 0:00:00.97
Peak level 96.4 %
Extraction speed 1.2 X
Track quality 100.0 %
Test CRC C4C25ED9
Copy CRC C4C25ED9
Accurately ripped (confidence 4) [712767C1] (AR v2)
Copy OK
Track 3
Filename G:\(qmaketorrent)\Kim Carnes - Crazy In The Night [1990] [FLAC] {CDLL-57273}\03 - Mistaken Identity.wav
Pre-gap length 0:00:01.46
Peak level 74.5 %
Extraction speed 1.4 X
Track quality 100.0 %
Test CRC E9E97EA8
Copy CRC E9E97EA8
Accurately ripped (confidence 4) [E16DED27] (AR v2)
Copy OK
Track 4
Filename G:\(qmaketorrent)\Kim Carnes - Crazy In The Night [1990] [FLAC] {CDLL-57273}\04 - Draw Of The Cards.wav
Pre-gap length 0:00:00.33
Peak level 96.4 %
Extraction speed 1.5 X
Track quality 100.0 %
Test CRC E4ABD6B7
Copy CRC E4ABD6B7
Accurately ripped (confidence 4) [B2320503] (AR v2)
Copy OK
Track 5
Filename G:\(qmaketorrent)\Kim Carnes - Crazy In The Night [1990] [FLAC] {CDLL-57273}\05 - Does It Make You Remember.wav
Pre-gap length 0:00:00.57
Peak level 96.4 %
Extraction speed 1.6 X
Track quality 100.0 %
Test CRC 02C81E30
Copy CRC 02C81E30
Accurately ripped (confidence 5) [2598243C] (AR v2)
Copy OK
Track 6
Filename G:\(qmaketorrent)\Kim Carnes - Crazy In The Night [1990] [FLAC] {CDLL-57273}\06 - Voyeur.wav
Pre-gap length 0:00:00.96
Peak level 97.3 %
Extraction speed 1.5 X
Track quality 99.9 %
Test CRC 4D705762
Copy CRC 4D705762
Accurately ripped (confidence 4) [48C5ACE0] (AR v2)
Copy OK
Track 7
Filename G:\(qmaketorrent)\Kim Carnes - Crazy In The Night [1990] [FLAC] {CDLL-57273}\07 - I Pretend.wav
Pre-gap length 0:00:01.66
Peak level 90.2 %
Extraction speed 1.8 X
Track quality 100.0 %
Test CRC 787C1865
Copy CRC 787C1865
Accurately ripped (confidence 3) [CEC1FDA4] (AR v2)
Copy OK
Track 8
Filename G:\(qmaketorrent)\Kim Carnes - Crazy In The Night [1990] [FLAC] {CDLL-57273}\08 - Invisible Hands.wav
Pre-gap length 0:00:01.76
Peak level 95.9 %
Extraction speed 1.8 X
Track quality 100.0 %
Test CRC E7212CF1
Copy CRC E7212CF1
Accurately ripped (confidence 3) [1AB452B4] (AR v2)
Copy OK
Track 9
Filename G:\(qmaketorrent)\Kim Carnes - Crazy In The Night [1990] [FLAC] {CDLL-57273}\09 - You Make My Heart Beat Faster.wav
Pre-gap length 0:00:01.62
Peak level 96.4 %
Extraction speed 1.7 X
Track quality 99.9 %
Test CRC 1D18FDCF
Copy CRC 1D18FDCF
Accurately ripped (confidence 3) [0AD95A9D] (AR v2)
Copy OK
Track 10
Filename G:\(qmaketorrent)\Kim Carnes - Crazy In The Night [1990] [FLAC] {CDLL-57273}\10 - Divided Hearts.wav
Pre-gap length 0:00:01.89
Peak level 96.4 %
Extraction speed 2.0 X
Track quality 100.0 %
Test CRC 2CC54060
Copy CRC 2CC54060
Accurately ripped (confidence 2) [13F43113] (AR v1)
Copy OK
Track 11
Filename G:\(qmaketorrent)\Kim Carnes - Crazy In The Night [1990] [FLAC] {CDLL-57273}\11 - Hurricane.wav
Peak level 96.7 %
Extraction speed 2.1 X
Track quality 100.0 %
Test CRC 6D6247A5
Copy CRC 6D6247A5
Accurately ripped (confidence 2) [C3A98012] (AR v2)
Copy OK
Track 12
Filename G:\(qmaketorrent)\Kim Carnes - Crazy In The Night [1990] [FLAC] {CDLL-57273}\12 - Crazy In The Night.wav
Pre-gap length 0:00:01.89
Peak level 96.4 %
Extraction speed 2.1 X
Track quality 100.0 %
Test CRC 4830C6C3
Copy CRC 4830C6C3
Accurately ripped (confidence 2) [5838EBBD] (AR v1)
Copy OK
All tracks accurately ripped
No errors occurred
End of status report
---- CUETools DB Plugin V2.1.6
[CTDB TOCID: 0lEGasM2Z5L7Y4F3g83mZzbacv8-] found
Submit result: 0lEGasM2Z5L7Y4F3g83mZzbacv8- has been confirmed
Track | CTDB Status
1 | (11/11) Accurately ripped
2 | (11/11) Accurately ripped
3 | (11/11) Accurately ripped
4 | (10/11) Accurately ripped, or (1/11) differs in 6 samples @02:38:59
5 | (11/11) Accurately ripped
6 | (11/11) Accurately ripped
7 | (10/11) Accurately ripped, or (1/11) differs in 11 samples @03:42:68,04:30:64
8 | (10/11) Accurately ripped, or (1/11) differs in 7 samples @02:50:69
9 | ( 8/11) Accurately ripped, or (1/11) differs in 86 samples @00:11:22,00:57:28,01:20:13,01:40:05,01:55:49,01:58:59-01:58:60,02:10:62,02:24:09,02:37:19,02:55:07,03:01:37,03:16:30,03:18:73,03:24:73
10 | ( 8/11) Accurately ripped, or (1/11) differs in 51 samples @00:41:49,00:52:51,00:56:11,00:58:07,01:11:58-01:11:59,01:24:48,02:35:48,03:08:40
11 | ( 6/11) Accurately ripped, or (1/11) differs in 28 samples @00:05:09,00:29:23,01:29:17,04:21:22
12 | ( 5/11) Accurately ripped, or (1/11) differs in 5 samples @00:58:20
==== Log checksum 603D2035A1779ADE0DD648273EBE779BD73838A0ED92825FFF9784A6C5C65B63 ====

Содержание индексной карты (.CUE)

REM GENRE Pop
REM DATE 1990
REM DISCID AB0B750C
REM COMMENT "ExactAudioCopy v1.3"
PERFORMER "Kim Carnes"
TITLE "Crazy In The Night"
REM COMPOSER ""
FILE "01 - More Love.wav" WAVE
TRACK 01 AUDIO
TITLE "More Love"
PERFORMER "Kim Carnes"
REM COMPOSER ""
PREGAP 00:00:33
INDEX 01 00:00:00
TRACK 02 AUDIO
TITLE "Cry Like A Baby"
PERFORMER "Kim Carnes"
REM COMPOSER ""
INDEX 00 03:35:32
FILE "02 - Cry Like A Baby.wav" WAVE
INDEX 01 00:00:00
TRACK 03 AUDIO
TITLE "Mistaken Identity"
PERFORMER "Kim Carnes"
REM COMPOSER ""
INDEX 00 03:02:52
FILE "03 - Mistaken Identity.wav" WAVE
INDEX 01 00:00:00
TRACK 04 AUDIO
TITLE "Draw Of The Cards"
PERFORMER "Kim Carnes"
REM COMPOSER ""
INDEX 00 04:45:53
FILE "04 - Draw Of The Cards.wav" WAVE
INDEX 01 00:00:00
TRACK 05 AUDIO
TITLE "Does It Make You Remember"
PERFORMER "Kim Carnes"
REM COMPOSER ""
INDEX 00 04:51:37
FILE "05 - Does It Make You Remember.wav" WAVE
INDEX 01 00:00:00
TRACK 06 AUDIO
TITLE "Voyeur"
PERFORMER "Kim Carnes"
REM COMPOSER ""
INDEX 00 03:58:15
FILE "06 - Voyeur.wav" WAVE
INDEX 01 00:00:00
TRACK 07 AUDIO
TITLE "I Pretend"
PERFORMER "Kim Carnes"
REM COMPOSER ""
INDEX 00 03:56:53
FILE "07 - I Pretend.wav" WAVE
INDEX 01 00:00:00
TRACK 08 AUDIO
TITLE "Invisible Hands"
PERFORMER "Kim Carnes"
REM COMPOSER ""
INDEX 00 05:15:60
FILE "08 - Invisible Hands.wav" WAVE
INDEX 01 00:00:00
TRACK 09 AUDIO
TITLE "You Make My Heart Beat Faster"
PERFORMER "Kim Carnes"
REM COMPOSER ""
INDEX 00 03:10:58
FILE "09 - You Make My Heart Beat Faster.wav" WAVE
INDEX 01 00:00:00
TRACK 10 AUDIO
TITLE "Divided Hearts"
PERFORMER "Kim Carnes"
REM COMPOSER ""
INDEX 00 03:57:58
FILE "10 - Divided Hearts.wav" WAVE
INDEX 01 00:00:00
FILE "11 - Hurricane.wav" WAVE
TRACK 11 AUDIO
TITLE "Hurricane"
PERFORMER "Kim Carnes"
REM COMPOSER ""
INDEX 01 00:00:00
TRACK 12 AUDIO
TITLE "Crazy In The Night"
PERFORMER "Kim Carnes"
REM COMPOSER ""
INDEX 00 04:26:63
FILE "12 - Crazy In The Night.wav" WAVE
INDEX 01 00:00:00

AccurateRip

[CUETools log; Date: 23.04.2019 20:51:57; Version: 2.1.5]
Pregap length 00:00:33.
[CTDB TOCID: 0lEGasM2Z5L7Y4F3g83mZzbacv8-] found.
Track | CTDB Status
1 | (14/14) Accurately ripped
2 | (14/14) Accurately ripped
3 | (14/14) Accurately ripped
4 | (12/14) Accurately ripped, or (1/14) differs in 6 samples @02:38:59
5 | (14/14) Accurately ripped
6 | (13/14) Accurately ripped
7 | (13/14) Accurately ripped, or (1/14) differs in 11 samples @03:42:68,04:30:64
8 | (13/14) Accurately ripped, or (1/14) differs in 7 samples @02:50:69
9 | (11/14) Accurately ripped, or (1/14) differs in 86 samples @00:11:22,00:57:28,01:20:13,01:40:05,01:55:49,01:58:59-01:58:60,02:10:62,02:24:09,02:37:19,02:55:07,03:01:37,03:16:30,03:18:73,03:24:73
10 | (11/14) Accurately ripped, or (1/14) differs in 51 samples @00:41:49,00:52:51,00:56:11,00:58:07,01:11:58-01:11:59,01:24:48,02:35:48,03:08:40
11 | ( 9/14) Accurately ripped, or (1/14) differs in 28 samples @00:05:09,00:29:23,01:29:17,04:21:22
12 | ( 7/14) Accurately ripped, or (1/14) differs in 5 samples @00:58:20
[AccurateRip ID: 0015c037-00cc30bd-ab0b750c] found.
Track [ CRC | V2 ] Status
01 [c44fea9e|2e34453d] (02+04/16) Accurately ripped
02 [f6f7e83c|712767c1] (02+04/17) Accurately ripped
03 [7b3f76c7|e16ded27] (02+04/17) Accurately ripped
04 [315ddf15|b2320503] (02+04/18) Accurately ripped
05 [c91f41b9|2598243c] (02+05/18) Accurately ripped
06 [4ccb81cd|48c5ace0] (02+04/18) Accurately ripped
07 [40ad36d1|cec1fda4] (02+03/15) Accurately ripped
08 [f2ac4bdf|1ab452b4] (02+03/16) Accurately ripped
09 [77f473c8|0ad95a9d] (02+03/16) Accurately ripped
10 [13f43113|5c3c30a0] (02+00/12) Accurately ripped
11 [bb887ad3|c3a98012] (02+02/13) Accurately ripped
12 [5838ebbd|d9b08942] (02+00/12) Accurately ripped
Offsetted by -429:
01 [74f2b701] (07/16) Accurately ripped
02 [2b4f826c] (08/17) Accurately ripped
03 [b117ca12] (08/17) Accurately ripped
04 [e15a9f75] (09/18) Accurately ripped
05 [4a3e23fc] (08/18) Accurately ripped
06 [42988da9] (08/18) Accurately ripped
07 [462b5ad4] (06/15) Accurately ripped
08 [5ab802b1] (07/16) Accurately ripped
09 [921273f6] (07/16) Accurately ripped
10 [c9481b5e] (06/12) Accurately ripped
11 [df9d9b98] (06/13) Accurately ripped
12 [7fd72506] (06/12) Accurately ripped
Track Peak [ CRC32 ] [W/O NULL] [ LOG ]
-- 97,3 [CBD016A0] [9D7A824C]
01 96,4 [7DD520FC] [5925A0E8] CRC32
02 96,4 [C4C25ED9] [98E0D3C0] CRC32
03 74,5 [E9E97EA8] [1A9127E6] CRC32
04 96,4 [E4ABD6B7] [998EDA6F] CRC32
05 96,4 [02C81E30] [7E8D2489] CRC32
06 97,3 [4D705762] [F606FD16] CRC32
07 90,2 [787C1865] [9DBB7A0A] CRC32
08 95,9 [E7212CF1] [95459863] CRC32
09 96,4 [1D18FDCF] [C124D31C] CRC32
10 96,4 [2CC54060] [530E981A] CRC32
11 96,7 [6D6247A5] [7A61FAFB] CRC32
12 96,4 [4830C6C3] [30255F40] CRC32
[torrents24.ru].t81823.torrent 
Торрент: Зарегистрирован [ 2019-04-24 15:50 ] · 0515FCA634FE5D2F1B318D9C81F85A9FF9B3574E

Скачать .torrent

Скачать

13 KB

Статус: проверено
Скачан: 0 раз
Размер: 289 MB
terms.php
[Профиль] [ЛС]
Показать сообщения:    
Ответить на тему

Текущее время: 26-Июн 09:17

Часовой пояс: UTC + 3



Вы не можете начинать темы
Вы не можете отвечать на сообщения
Вы не можете редактировать свои сообщения
Вы не можете удалять свои сообщения
Вы не можете голосовать в опросах
Вы не можете прикреплять файлы к сообщениям
Вы можете скачивать файлы

Интересное в сети