(Pop rock) [CD] Arik Einstein (אריק איינשטיין) - People Like To Sing - 1977 (1994), FLAC (tracks+.cue), lossless

Ответить на тему
Статистика раздачи
Размер:  206 MB   |    Зарегистрирован:  2 месяца 4 дня   |    Скачан:  0 раз

Полного источника не было: Никогда

 
   
 
 
Автор Сообщение

folk ®

Пол: Не указан

Стаж: 1 год 3 месяца

Сообщений: 136

Создавать темы 21-Апр-2019 16:44

[Цитировать]

-- --Arik Einstein (אריק איינשטיין) - People Like To Sing (אנשים אוהבים לשיר) - 1977 (1994)-- Жанр: Pop rock
Носитель: CD (Reissue, Live)
Страна-производитель диска (релиза): Israel
Год издания оригинала: 1977
Год переиздания: 1994
Издатель (лейбл): Phonokol
Номер по каталогу: 4058-2
Страна исполнителя (группы) : Israel
Аудио кодек: FLAC (*.flac)
Тип рипа: (tracks + .cue)
Битрейт аудио: lossless
Наличие сканов в содержимом раздачи: full scans, png, 300 dpi
Продолжительность: 31:35
Источник (релизер): Моя коллекция, мой рип
Трэклист:
1 Zeitlin Sausage = "הנקניק מצייטלין" 2:59 (Yoni Rechter)
2 I Watch Her On The Way To High School = אני רואה אותה בדרך לגימנסיה 3:27 (Miki Gavrielov - Jacob Rothblith)
3 Angels' Tears = דמעות של מלאכים 3:29 (Yoni Rechter)
4 Days Passing By = הימים חולפים 3:22 (Yoni Rechter - Yoni Rechter)
5 All The Week For You = כל השבוע לך 2:58 (Shmulik Kraus - Arik Einstein)
6 On Hot Summer Nights = בלילות הקיץ החמים 3:04 (Matti Caspi - Dan Minster)
7 Everything Across The Gila'ad Mountains = ערב מול הגלעד 3:01 (Miki Gavrielov - Leah Goldberg)
8 I'v Got A Kid Brother = יש לי אח קטן 2:27 (Shem-Tov Levi - Arik Einstein)
9 That Same Old Love = זו אותה האהבה 3:08 (Yoni Rechter - Arik Einstein)
10 Me And You = אני ואתה 3:08 (Miki Gavrielov - Arik Einstein)

Лог создания рипа

Exact Audio Copy V1.3 from 2. September 2016
EAC extraction logfile from 6. April 2019, 19:48
אריק איינשטיין / בהופעה חיה
Used drive : HL-DT-STDVDRAM GSA-T50N Adapter: 1 ID: 0
Read mode : Secure
Utilize accurate stream : Yes
Defeat audio cache : Yes
Make use of C2 pointers : No
Read offset correction : 667
Overread into Lead-In and Lead-Out : No
Fill up missing offset samples with silence : Yes
Delete leading and trailing silent blocks : No
Null samples used in CRC calculations : Yes
Used interface : Native Win32 interface for Win NT & 2000
Gap handling : Appended to previous track
Used output format : User Defined Encoder
Selected bitrate : 1024 kBit/s
Quality : High
Add ID3 tag : No
Command line compressor : C:\Program Files\Exact Audio Copy\Flac\flac.exe
Additional command line options : -V -8 -T "Genre=%genre%" -T "Artist=%artist%" -T "Title=%title%" -T "Album=%albumtitle%" -T "Date=%year%" -T "Tracknumber=%tracknr%" %source% -o %dest%
TOC of the extracted CD
Track | Start | Length | Start sector | End sector
---------------------------------------------------------
1 | 0:00.30 | 2:59.26 | 30 | 13480
2 | 2:59.56 | 3:34.15 | 13481 | 29545
3 | 6:33.71 | 3:35.54 | 29546 | 45724
4 | 10:09.50 | 3:21.72 | 45725 | 60871
5 | 13:31.47 | 2:59.02 | 60872 | 74298
6 | 16:30.49 | 3:06.24 | 74299 | 88272
7 | 19:36.73 | 3:00.68 | 88273 | 101840
8 | 22:37.66 | 2:27.50 | 101841 | 112915
9 | 25:05.41 | 3:21.67 | 112916 | 128057
10 | 28:27.33 | 3:08.64 | 128058 | 142221
Track 1
Filename C:\music\MG rips\אריק איינשטיין - בהופעה חיה - 1994\01 - הנקניק מצייטלין.wav
Pre-gap length 0:00:02.30
Peak level 95.3 %
Extraction speed 2.3 X
Track quality 100.0 %
Test CRC 0FAC4B71
Copy CRC 0FAC4B71
Cannot be verified as accurate (confidence 1) [BA65D20D], AccurateRip returned [5A9DC3BA] (AR v2)
Copy OK
Track 2
Filename C:\music\MG rips\אריק איינשטיין - בהופעה חיה - 1994\02 - אני רואה אותה בדרך לגימנסיה.wav
Peak level 99.0 %
Extraction speed 2.6 X
Track quality 100.0 %
Test CRC 53F090FE
Copy CRC 53F090FE
Cannot be verified as accurate (confidence 1) [9BD4FDC2], AccurateRip returned [C60066FA] (AR v2)
Copy OK
Track 3
Filename C:\music\MG rips\אריק איינשטיין - בהופעה חיה - 1994\03 - דמעות של מלאכים.wav
Peak level 100.0 %
Extraction speed 2.7 X
Track quality 100.0 %
Test CRC E43E6165
Copy CRC E43E6165
Cannot be verified as accurate (confidence 1) [7EEB45A8], AccurateRip returned [D1650E40] (AR v2)
Copy OK
Track 4
Filename C:\music\MG rips\אריק איינשטיין - בהופעה חיה - 1994\04 - הימים חולפים.wav
Peak level 93.7 %
Extraction speed 3.0 X
Track quality 100.0 %
Test CRC 61705779
Copy CRC 61705779
Cannot be verified as accurate (confidence 1) [0469F8CA], AccurateRip returned [707AE97D] (AR v2)
Copy OK
Track 5
Filename C:\music\MG rips\אריק איינשטיין - בהופעה חיה - 1994\05 - כל השבוע לך.wav
Peak level 95.5 %
Extraction speed 3.1 X
Track quality 100.0 %
Test CRC E93180F9
Copy CRC E93180F9
Cannot be verified as accurate (confidence 1) [9A9EE0BB], AccurateRip returned [1904F8FD] (AR v2)
Copy OK
Track 6
Filename C:\music\MG rips\אריק איינשטיין - בהופעה חיה - 1994\06 - בלילות הקיץ החמים.wav
Peak level 100.0 %
Extraction speed 3.3 X
Track quality 100.0 %
Test CRC 9795912E
Copy CRC 9795912E
Cannot be verified as accurate (confidence 1) [8A071781], AccurateRip returned [57426B80] (AR v2)
Copy OK
Track 7
Filename C:\music\MG rips\אריק איינשטיין - בהופעה חיה - 1994\07 - ערב מול הגלעד.wav
Peak level 91.3 %
Extraction speed 2.9 X
Track quality 99.9 %
Test CRC 801BCE86
Copy CRC 801BCE86
Cannot be verified as accurate (confidence 1) [73CB6E83], AccurateRip returned [64427AE5] (AR v2)
Copy OK
Track 8
Filename C:\music\MG rips\אריק איינשטיין - בהופעה חיה - 1994\08 - יש לי אח קטן.wav
Peak level 89.6 %
Extraction speed 3.3 X
Track quality 100.0 %
Test CRC 7ECE4D52
Copy CRC 7ECE4D52
Cannot be verified as accurate (confidence 1) [96E0D14F], AccurateRip returned [55B8F181] (AR v2)
Copy OK
Track 9
Filename C:\music\MG rips\אריק איינשטיין - בהופעה חיה - 1994\09 - זו אותה האהבה.wav
Peak level 80.0 %
Extraction speed 3.7 X
Track quality 100.0 %
Test CRC 01B17E13
Copy CRC 01B17E13
Cannot be verified as accurate (confidence 1) [E41EC34C], AccurateRip returned [1C276C39] (AR v2)
Copy OK
Track 10
Filename C:\music\MG rips\אריק איינשטיין - בהופעה חיה - 1994\10 - אני ואתה.wav
Peak level 100.0 %
Extraction speed 3.8 X
Track quality 100.0 %
Test CRC 09FA982D
Copy CRC 09FA982D
Cannot be verified as accurate (confidence 1) [D362BC42], AccurateRip returned [213B8F15] (AR v2)
Copy OK
No tracks could be verified as accurate
You may have a different pressing from the one(s) in the database
No errors occurred
End of status report
==== Log checksum 4261DCEC41FC1B0A6EF04340076DA2684F29698A91AF4313B236BB0C9EE354F0 ====

Содержание индексной карты (.CUE):

REM GENRE Rock
REM DATE 1994
REM DISCID 8607680A
REM COMMENT "ExactAudioCopy v1.3"
PERFORMER "אריק איינשטיין"
TITLE "בהופעה חיה"
REM COMPOSER ""
FILE "01 - הנקניק מצייטלין.wav" WAVE
TRACK 01 AUDIO
TITLE "הנקניק מצייטלין"
PERFORMER "אריק איינשטיין"
REM COMPOSER ""
PREGAP 00:00:30
INDEX 01 00:00:00
FILE "02 - אני רואה אותה בדרך לגימנסיה.wav" WAVE
TRACK 02 AUDIO
TITLE "אני רואה אותה בדרך לגימנסיה"
PERFORMER "אריק איינשטיין"
REM COMPOSER ""
INDEX 01 00:00:00
FILE "03 - דמעות של מלאכים.wav" WAVE
TRACK 03 AUDIO
TITLE "דמעות של מלאכים"
PERFORMER "אריק איינשטיין"
REM COMPOSER ""
INDEX 01 00:00:00
FILE "04 - הימים חולפים.wav" WAVE
TRACK 04 AUDIO
TITLE "הימים חולפים"
PERFORMER "אריק איינשטיין"
REM COMPOSER ""
INDEX 01 00:00:00
FILE "05 - כל השבוע לך.wav" WAVE
TRACK 05 AUDIO
TITLE "כל השבוע לך"
PERFORMER "אריק איינשטיין"
REM COMPOSER ""
INDEX 01 00:00:00
FILE "06 - בלילות הקיץ החמים.wav" WAVE
TRACK 06 AUDIO
TITLE "בלילות הקיץ החמים"
PERFORMER "אריק איינשטיין"
REM COMPOSER ""
INDEX 01 00:00:00
FILE "07 - ערב מול הגלעד.wav" WAVE
TRACK 07 AUDIO
TITLE "ערב מול הגלעד"
PERFORMER "אריק איינשטיין"
REM COMPOSER ""
INDEX 01 00:00:00
FILE "08 - יש לי אח קטן.wav" WAVE
TRACK 08 AUDIO
TITLE "יש לי אח קטן"
PERFORMER "אריק איינשטיין"
REM COMPOSER ""
INDEX 01 00:00:00
FILE "09 - זו אותה האהבה.wav" WAVE
TRACK 09 AUDIO
TITLE "זו אותה האהבה"
PERFORMER "אריק איינשטיין"
REM COMPOSER ""
INDEX 01 00:00:00
FILE "10 - אני ואתה.wav" WAVE
TRACK 10 AUDIO
TITLE "אני ואתה"
PERFORMER "אריק איינשטיין"
REM COMPOSER ""
INDEX 01 00:00:00

Лог проверки качества

Проверка зазоров на тишину

Лог CUETools

[CUETools log; Date: 4/19/2019 8:36:30 PM; Version: 2.1.5]
Pregap length 00:00:30.
[CTDB TOCID: 00y0JYKffZa.bm9B9RYMwLeDFh8-] found.
Track | CTDB Status
1 | (4/4) Accurately ripped
2 | (4/4) Accurately ripped
3 | (4/4) Accurately ripped
4 | (4/4) Accurately ripped
5 | (4/4) Accurately ripped
6 | (4/4) Accurately ripped
7 | (4/4) Accurately ripped
8 | (4/4) Accurately ripped
9 | (4/4) Accurately ripped
10 | (4/4) Accurately ripped
[AccurateRip ID: 000c2a4f-0060c7bd-8607680a] found.
Track [ CRC | V2 ] Status
01 [88c57357|ba65d20d] (0+0/1) No match
02 [31ac33a7|9bd4fdc2] (0+0/1) No match
03 [7fc7ea7e|7eeb45a8] (0+0/1) No match
04 [25f97911|0469f8ca] (0+0/1) No match
05 [25dc9dbe|9a9ee0bb] (0+0/1) No match
06 [62d6a1fe|8a071781] (0+0/1) No match
07 [8935f3ef|73cb6e83] (0+0/1) No match
08 [f78e7b21|96e0d14f] (0+0/1) No match
09 [caa21a7b|e41ec34c] (0+0/1) No match
10 [5c28b8d5|d362bc42] (0+0/1) No match
Offsetted by -213:
01 [2aa91929] (0/1) No match (V2 was not tested)
02 [7eabf575] (0/1) No match (V2 was not tested)
03 [eedc3736] (0/1) No match (V2 was not tested)
04 [9b95c526] (0/1) No match (V2 was not tested)
05 [72e963a7] (0/1) No match (V2 was not tested)
06 [213c6a5d] (0/1) No match (V2 was not tested)
07 [76aa1fea] (0/1) No match (V2 was not tested)
08 [af82b9b3] (0/1) No match (V2 was not tested)
09 [fba54458] (0/1) No match (V2 was not tested)
10 [765861fa] (0/1) No match (V2 was not tested)
Track Peak [ CRC32 ] [W/O NULL] [ LOG ]
-- 100.0 [3262E83E] [5EFFE6D0]
01 95.3 [0FAC4B71] [F30D70C3] CRC32
02 99.0 [53F090FE] [08095056] CRC32
03 100.0 [E43E6165] [629AA3CD] CRC32
04 93.7 [61705779] [BC1B12FC] CRC32
05 95.5 [E93180F9] [65354FE2] CRC32
06 100.0 [9795912E] [5402B874] CRC32
07 91.3 [801BCE86] [2892EAE9] CRC32
08 89.6 [7ECE4D52] [55ED9771] CRC32
09 80.0 [01B17E13] [0C300967] CRC32
10 100.0 [09FA982D] [68523D31] CRC32

Замер динамического диапазона

foobar2000 1.3.10 / Замер динамического диапазона (DR) 1.1.1
Дата отчёта: 2019-04-19 20:36:21
--------------------------------------------------------------------------------
Анализ: אריק איינשטיין / בהופעה חיה
--------------------------------------------------------------------------------
DR Пики RMS Продолжительность трека
--------------------------------------------------------------------------------
DR11 -0.41 дБ -13.77 дБ 2:59 01-הנקניק מצייטלין
DR11 -0.09 дБ -13.78 дБ 3:34 02-אני רואה אותה בדרך לגימנסיה
DR13 0.00 дБ -17.31 дБ 3:36 03-דמעות של מלאכים
DR12 -0.56 дБ -17.75 дБ 3:22 04-הימים חולפים
DR10 -0.39 дБ -12.98 дБ 2:59 05-כל השבוע לך
DR11 0.00 дБ -14.41 дБ 3:06 06-בלילות הקיץ החמים
DR14 -0.79 дБ -17.43 дБ 3:01 07-ערב מול הגלעד
DR9 -0.95 дБ -12.20 дБ 2:28 08-יש לי אח קטן
DR15 -1.93 дБ -21.05 дБ 3:22 09-זו אותה האהבה
DR11 0.00 дБ -16.11 дБ 3:09 10-אני ואתה
--------------------------------------------------------------------------------
Количество треков: 10
Реальные значения DR: DR12
Частота: 44100 Гц
Каналов: 2
Разрядность: 16
Битрейт: 765 кбит/с
Кодек: FLAC
================================================================================
-

Back

Диск

Матрица

-
[torrents24.ru].t81520.torrent 
Торрент: Зарегистрирован [ 2019-04-21 16:45 ] · 60C2B3B939732099EF9477748F65C07D19FF2AE7

Скачать .torrent

Скачать

18 KB

Статус: проверено
Скачан: 0 раз
Размер: 206 MB
terms.php
[Профиль] [ЛС]
Показать сообщения:    
Ответить на тему

Текущее время: 26-Июн 08:51

Часовой пояс: UTC + 3



Вы не можете начинать темы
Вы не можете отвечать на сообщения
Вы не можете редактировать свои сообщения
Вы не можете удалять свои сообщения
Вы не можете голосовать в опросах
Вы не можете прикреплять файлы к сообщениям
Вы можете скачивать файлы

Интересное в сети