(Folk rock, singer-songwriter) [CD] Itay Pearl (איתי פרל) - Girls (בנות) - 2005, FLAC (tracks+.cue), lossless

Ответить на тему
Статистика раздачи
Размер:  344 MB   |    Зарегистрирован:  2 месяца 4 дня   |    Скачан:  0 раз

Полного источника не было: Никогда

 
   
 
 
Автор Сообщение

folk ®

Пол: Не указан

Стаж: 1 год 3 месяца

Сообщений: 136

Создавать темы 21-Апр-2019 16:44

[Цитировать]

-- --Itay Pearl (איתי פרל) - Girls (בנות) - 2005-- Жанр: Folk rock, singer-songwriter
Носитель: CD
Страна-производитель диска (релиза): Israel
Год издания оригинала: 2005
Издатель (лейбл): The Eighth Note
Номер по каталогу: none
Страна исполнителя (группы) : Israel
Аудио кодек: FLAC (*.flac)
Тип рипа: (tracks + .cue)
Битрейт аудио: lossless
Наличие сканов в содержимом раздачи: full scans, png, 300 dpi
Продолжительность: 47:56
Источник (релизер): Моя коллекция, мой рип
Трэклист:
1. פתיחה = Вступление - 1:40
2. לפנות עצב = Отвернись от грусти - 5:12
3. שוב צוחקת = Снова смеешься - 3:59
4. כל הטובות תפוסות = Все вкусности заняты - 4:35
5. צ'יפופו (לא אעשה עניין) = Чипопо (я не буду прилагать усилий) - 3:27
6. כל ילדה יודעת = Каждая девочка знает - 4:51
7. בטטות = Сладкий картофель (батата) - 2:12
8. בנות בבטן = Девочки в животе - 3:13
9. עוד הלילה = Еще ночь - 4:04
10. אברהם ואיברהם = Авраам и Ибрагим - 4:08
11. תני לי = Дай мне - 2:51
12. בן ככל הבנים = Столько, сколько мальчиков - 4:02
13. אל תתבישי = Не стесняйся - 3:25

Лог создания рипа

Exact Audio Copy V1.3 from 2. September 2016
EAC extraction logfile from 7. April 2019, 12:21
איתי פרל / בנות
Used drive : HL-DT-STDVDRAM GH24NSB0 Adapter: 1 ID: 0
Read mode : Secure
Utilize accurate stream : Yes
Defeat audio cache : Yes
Make use of C2 pointers : No
Read offset correction : 6
Overread into Lead-In and Lead-Out : No
Fill up missing offset samples with silence : Yes
Delete leading and trailing silent blocks : No
Null samples used in CRC calculations : Yes
Used interface : Native Win32 interface for Win NT & 2000
Gap handling : Appended to previous track
Used output format : User Defined Encoder
Selected bitrate : 1024 kBit/s
Quality : High
Add ID3 tag : No
Command line compressor : C:\Program Files (x86)\Exact Audio Copy\FLAC\FLAC.EXE
Additional command line options : -V -8 -T "Genre=%genre%" -T "Artist=%artist%" -T "Title=%title%" -T "Album=%albumtitle%" -T "Date=%year%" -T "Tracknumber=%tracknr%" -T "Comment=%comment%" %source%
TOC of the extracted CD
Track | Start | Length | Start sector | End sector
---------------------------------------------------------
1 | 0:00.00 | 1:40.70 | 0 | 7569
2 | 1:40.70 | 5:12.42 | 7570 | 31011
3 | 6:53.37 | 3:58.73 | 31012 | 48934
4 | 10:52.35 | 4:35.32 | 48935 | 69591
5 | 15:27.67 | 3:29.13 | 69592 | 85279
6 | 18:57.05 | 4:53.50 | 85280 | 107304
7 | 23:50.55 | 2:12.25 | 107305 | 117229
8 | 26:03.05 | 3:12.65 | 117230 | 131694
9 | 29:15.70 | 4:05.70 | 131695 | 150139
10 | 33:21.65 | 4:09.20 | 150140 | 168834
11 | 37:31.10 | 2:53.12 | 168835 | 181821
12 | 40:24.22 | 4:05.65 | 181822 | 200261
13 | 44:30.12 | 3:26.53 | 200262 | 215764
Track 1
Filename D:\Music\MG rips\איתי פרל - בנות - 2005\01 - פתיחה.wav
Pre-gap length 0:00:02.00
Peak level 71.5 %
Extraction speed 0.6 X
Track quality 99.8 %
Test CRC 5B7FB258
Copy CRC 5B7FB258
Track not present in AccurateRip database
Copy OK
Track 2
Filename D:\Music\MG rips\איתי פרל - בנות - 2005\02 - לפנות עצב.wav
Pre-gap length 0:00:01.35
Peak level 94.2 %
Extraction speed 1.1 X
Track quality 100.0 %
Test CRC 862BA029
Copy CRC 862BA029
Track not present in AccurateRip database
Copy OK
Track 3
Filename D:\Music\MG rips\איתי פרל - בנות - 2005\03 - שוב צוחקת.wav
Peak level 95.6 %
Extraction speed 1.2 X
Track quality 100.0 %
Test CRC 466157C2
Copy CRC 466157C2
Track not present in AccurateRip database
Copy OK
Track 4
Filename D:\Music\MG rips\איתי פרל - בנות - 2005\04 - כל הטובות תפוסות.wav
Peak level 94.3 %
Extraction speed 1.4 X
Track quality 100.0 %
Test CRC 9BE1884D
Copy CRC 9BE1884D
Track not present in AccurateRip database
Copy OK
Track 5
Filename D:\Music\MG rips\איתי פרל - בנות - 2005\05 - צ'יפופו.wav
Pre-gap length 0:00:00.02
Peak level 94.4 %
Extraction speed 1.2 X
Track quality 99.9 %
Test CRC F968FC43
Copy CRC F968FC43
Track not present in AccurateRip database
Copy OK
Track 6
Filename D:\Music\MG rips\איתי פרל - בנות - 2005\06 - כל ילדה יודעת.wav
Pre-gap length 0:00:01.50
Peak level 94.0 %
Extraction speed 1.6 X
Track quality 100.0 %
Test CRC BA8FA775
Copy CRC BA8FA775
Track not present in AccurateRip database
Copy OK
Track 7
Filename D:\Music\MG rips\איתי פרל - בנות - 2005\07 - בטטות.wav
Pre-gap length 0:00:02.10
Peak level 91.2 %
Extraction speed 1.4 X
Track quality 100.0 %
Test CRC 1A559200
Copy CRC 1A559200
Track not present in AccurateRip database
Copy OK
Track 8
Filename D:\Music\MG rips\איתי פרל - בנות - 2005\08 - בנות בבטן.wav
Pre-gap length 0:00:01.45
Peak level 100.0 %
Extraction speed 1.4 X
Track quality 99.9 %
Test CRC 0DF1BF6E
Copy CRC 0DF1BF6E
Track not present in AccurateRip database
Copy OK
Track 9
Filename D:\Music\MG rips\איתי פרל - בנות - 2005\09 - עוד הלילה.wav
Pre-gap length 0:00:00.03
Peak level 93.9 %
Extraction speed 1.7 X
Track quality 100.0 %
Test CRC 2C3D72EB
Copy CRC 2C3D72EB
Track not present in AccurateRip database
Copy OK
Track 10
Filename D:\Music\MG rips\איתי פרל - בנות - 2005\10 - אברהם ואיברהים.wav
Pre-gap length 0:00:02.10
Peak level 95.1 %
Extraction speed 1.8 X
Track quality 100.0 %
Test CRC 13B71202
Copy CRC 13B71202
Track not present in AccurateRip database
Copy OK
Track 11
Filename D:\Music\MG rips\איתי פרל - בנות - 2005\11 - תני לי.wav
Pre-gap length 0:00:00.53
Peak level 94.1 %
Extraction speed 1.7 X
Track quality 100.0 %
Test CRC 2ADCDC32
Copy CRC 2ADCDC32
Track not present in AccurateRip database
Copy OK
Track 12
Filename D:\Music\MG rips\איתי פרל - בנות - 2005\12 - בן ככל הבנים.wav
Pre-gap length 0:00:02.20
Peak level 94.1 %
Extraction speed 1.9 X
Track quality 100.0 %
Test CRC 9F14AF91
Copy CRC 9F14AF91
Track not present in AccurateRip database
Copy OK
Track 13
Filename D:\Music\MG rips\איתי פרל - בנות - 2005\13 - אל תתביישי.wav
Pre-gap length 0:00:03.22
Peak level 94.0 %
Extraction speed 1.9 X
Track quality 100.0 %
Test CRC 2E21E2D0
Copy CRC 2E21E2D0
Track not present in AccurateRip database
Copy OK
None of the tracks are present in the AccurateRip database
No errors occurred
End of status report
==== Log checksum 927CDE02BF4B8273536426874EA031957963C66F302C25E6BD652C63AAA507CC ====

Содержание индексной карты (.CUE):

REM GENRE Israeli
REM DATE 2005
REM DISCID 9F0B3C0D
REM COMMENT "ExactAudioCopy v1.3"
PERFORMER "איתי פרל"
TITLE "בנות"
REM COMPOSER ""
FILE "01 - פתיחה.wav" WAVE
TRACK 01 AUDIO
TITLE "פתיחה"
PERFORMER "איתי פרל"
REM COMPOSER ""
INDEX 01 00:00:00
TRACK 02 AUDIO
TITLE "לפנות עצב"
PERFORMER "איתי פרל"
REM COMPOSER ""
INDEX 00 01:39:35
FILE "02 - לפנות עצב.wav" WAVE
INDEX 01 00:00:00
FILE "03 - שוב צוחקת.wav" WAVE
TRACK 03 AUDIO
TITLE "שוב צוחקת"
PERFORMER "איתי פרל"
REM COMPOSER ""
INDEX 01 00:00:00
FILE "04 - כל הטובות תפוסות.wav" WAVE
TRACK 04 AUDIO
TITLE "כל הטובות תפוסות"
PERFORMER "איתי פרל"
REM COMPOSER ""
INDEX 01 00:00:00
TRACK 05 AUDIO
TITLE "צ'יפופו"
PERFORMER "איתי פרל"
REM COMPOSER ""
INDEX 00 04:35:30
FILE "05 - צ'יפופו.wav" WAVE
INDEX 01 00:00:00
TRACK 06 AUDIO
TITLE "כל ילדה יודעת"
PERFORMER "איתי פרל"
REM COMPOSER ""
INDEX 00 03:27:38
FILE "06 - כל ילדה יודעת.wav" WAVE
INDEX 01 00:00:00
TRACK 07 AUDIO
TITLE "בטטות"
PERFORMER "איתי פרל"
REM COMPOSER ""
INDEX 00 04:51:40
FILE "07 - בטטות.wav" WAVE
INDEX 01 00:00:00
TRACK 08 AUDIO
TITLE "בנות בבטן"
PERFORMER "איתי פרל"
REM COMPOSER ""
INDEX 00 02:10:55
FILE "08 - בנות בבטן.wav" WAVE
INDEX 01 00:00:00
TRACK 09 AUDIO
TITLE "עוד הלילה"
PERFORMER "איתי פרל"
REM COMPOSER ""
INDEX 00 03:12:62
FILE "09 - עוד הלילה.wav" WAVE
INDEX 01 00:00:00
TRACK 10 AUDIO
TITLE "אברהם ואיברהים"
PERFORMER "איתי פרל"
REM COMPOSER ""
INDEX 00 04:03:60
FILE "10 - אברהם ואיברהים.wav" WAVE
INDEX 01 00:00:00
TRACK 11 AUDIO
TITLE "תני לי"
PERFORMER "איתי פרל"
REM COMPOSER ""
INDEX 00 04:08:42
FILE "11 - תני לי.wav" WAVE
INDEX 01 00:00:00
TRACK 12 AUDIO
TITLE "בן ככל הבנים"
PERFORMER "איתי פרל"
REM COMPOSER ""
INDEX 00 02:50:67
FILE "12 - בן ככל הבנים.wav" WAVE
INDEX 01 00:00:00
TRACK 13 AUDIO
TITLE "אל תתביישי"
PERFORMER "איתי פרל"
REM COMPOSER ""
INDEX 00 04:02:43
FILE "13 - אל תתביישי.wav" WAVE
INDEX 01 00:00:00

Лог проверки качества

Лог CUETools

[CUETools log; Date: 4/19/2019 8:36:25 PM; Version: 2.1.5]
[CTDB TOCID: 09G0Tt4U6X4qZpeM5x8oEp_zr0o-] disk not present in database.
[AccurateRip ID: 00171fb3-00e7f830-9f0b3c0d] disk not present in database.
Track Peak [ CRC32 ] [W/O NULL] [ LOG ]
-- 100.0 [7301AA35] [D3EB928A]
01 71.5 [5B7FB258] [FB569C27] CRC32
02 94.2 [862BA029] [15256019] CRC32
03 95.6 [466157C2] [AF11F284] CRC32
04 94.3 [9BE1884D] [2FD87447] CRC32
05 94.4 [F968FC43] [584D3343] CRC32
06 94.0 [BA8FA775] [1D78630D] CRC32
07 91.2 [1A559200] [0831A03A] CRC32
08 100.0 [0DF1BF6E] [BCB6614E] CRC32
09 93.9 [2C3D72EB] [68392CC2] CRC32
10 95.1 [13B71202] [1E7AB85D] CRC32
11 94.1 [2ADCDC32] [3F6398B7] CRC32
12 94.1 [9F14AF91] [21A0F532] CRC32
13 94.0 [2E21E2D0] [AFFC2CBB] CRC32

Замер динамического диапазона

foobar2000 1.3.10 / Замер динамического диапазона (DR) 1.1.1
Дата отчёта: 2019-04-19 20:36:14
--------------------------------------------------------------------------------
Анализ: איתי פרל / בנות
--------------------------------------------------------------------------------
DR Пики RMS Продолжительность трека
--------------------------------------------------------------------------------
DR9 -2.91 дБ -16.67 дБ 1:41 01-פתיחה
DR9 -0.52 дБ -13.44 дБ 5:13 02-לפנות עצב
DR9 -0.38 дБ -11.67 дБ 3:59 03-שוב צוחקת
DR10 -0.51 дБ -13.26 дБ 4:35 04-כל הטובות תפוסות
DR8 -0.50 дБ -12.58 дБ 3:29 05-צ'יפופו
DR8 -0.53 дБ -12.08 дБ 4:54 06-כל ילדה יודעת
DR10 -0.80 дБ -13.84 дБ 2:12 07-בטטות
DR7 0.00 дБ -9.48 дБ 3:13 08-בנות בבטן
DR10 -0.54 дБ -14.56 дБ 4:06 09-עוד הלילה
DR7 -0.43 дБ -9.89 дБ 4:09 10-אברהם ואיברהים
DR9 -0.52 дБ -13.10 дБ 2:53 11-תני לי
DR9 -0.53 дБ -12.89 дБ 4:06 12-בן ככל הבנים
DR13 -0.53 дБ -19.38 дБ 3:27 13-אל תתביישי
--------------------------------------------------------------------------------
Количество треков: 13
Реальные значения DR: DR9
Частота: 44100 Гц
Каналов: 2
Разрядность: 16
Битрейт: 597 кбит/с
Кодек: FLAC
================================================================================
-

Back

Диск

Матрица

Состав

Lyrics By, Composed By, Arranged By, Producer, Vocals, Guitar – Itay Pearl
Trombone, Vocals – Yair Slutzki
Vocals, Contrabass – Guy Tuval
Vocals, Drums, Percussion – Ran Levanon
Vocals, Tenor Saxophone – Amit Friedman
Guests
Accordion, Electric Organ – Itamar Gross (tracks: 4,10)
Cello – Yonatan Gutfeld (tracks: 12), Neta Ben-Eser (tracks: 6)
Drums – Udi Shlomo (tracks: 6)
Guitar – Erez Yulevich (tracks: 3)
Keyboards – Erez Yulevich (tracks: 8)
Soprano Saxophone – Yuval Cohen (tracks: 6,12)
Vocals – Aya Korem (tracks: 11), Itsik Mizrukhin (tracks: 4)
-
[torrents24.ru].t81519.torrent 
Торрент: Зарегистрирован [ 2019-04-21 16:45 ] · 8BA401E4D39A6433EFC874AA97B31EF06416ECFF

Скачать .torrent

Скачать

15 KB

Статус: проверено
Скачан: 0 раз
Размер: 344 MB
terms.php
[Профиль] [ЛС]
Показать сообщения:    
Ответить на тему

Текущее время: 26-Июн 08:54

Часовой пояс: UTC + 3



Вы не можете начинать темы
Вы не можете отвечать на сообщения
Вы не можете редактировать свои сообщения
Вы не можете удалять свои сообщения
Вы не можете голосовать в опросах
Вы не можете прикреплять файлы к сообщениям
Вы можете скачивать файлы

Интересное в сети