(Rock, Soft Rock, Pop-Rock) [CD] Smokie - Forever (4CD) - 2000, FLAC (image+.cue), lossless

Ответить на тему
Статистика раздачи
Размер:  1,75 GB   |    Зарегистрирован:  2 месяца 4 дня   |    Скачан:  0 раз

Полного источника не было: Никогда

 
   
 
 
Автор Сообщение

folk ®

Пол: Не указан

Стаж: 1 год 3 месяца

Сообщений: 136

Создавать темы 21-Апр-2019 16:44

[Цитировать]

Smokie / Forever
Жанр: Rock, Soft Rock, Pop-Rock
Носитель: CD
Страна-производитель диска (релиза): Germany
Год издания: 2000
Издатель (лейбл): BMG, Ariola
Номер по каталогу: 74321 75255 2
Аудиокодек: FLAC (*.flac)
Тип рипа: image+.cue
Продолжительность: 04:21:30
Источник: rwa12
Наличие сканов в содержимом раздачи: да

CD1

01. If You Think You Know How To Love Me
02. It's Natural
03. Light Up My Life
04. Love's A Riot
05. My Woman
06. Now You Think You Know
07. Petesey's Song
08. Run To You
09. Stranger
10. Take Me In
11. The Girl Can't Help It
12. Umbrella Day
13. When My Back Was Against The Wall
14. A Day At The Mother-In-Law's
15. Back To Bradford
16. Daydreamin'
17. For A Few Dollars More
18. Headspin

Лог создания рипа

Exact Audio Copy V1.3 from 2. September 2016
EAC extraction logfile from 1. March 2019, 11:48
Smokie / Forever (CD1)
Used drive : TSSTcorpCDDVDW SH-224GB Adapter: 1 ID: 0
Read mode : Secure
Utilize accurate stream : Yes
Defeat audio cache : Yes
Make use of C2 pointers : No
Read offset correction : 6
Overread into Lead-In and Lead-Out : No
Fill up missing offset samples with silence : Yes
Delete leading and trailing silent blocks : No
Null samples used in CRC calculations : Yes
Used interface : Native Win32 interface for Win NT & 2000
Used output format : User Defined Encoder
Selected bitrate : 128 kBit/s
Quality : High
Add ID3 tag : No
Command line compressor : C:\Program Files (x86)\Exact Audio Copy\FLAC\FLAC.EXE
Additional command line options : -V -8 -T "Date=%year%" -T "Genre=%genre%" %source%
TOC of the extracted CD
Track | Start | Length | Start sector | End sector
---------------------------------------------------------
1 | 0:00.32 | 3:27.00 | 32 | 15556
2 | 3:27.32 | 2:38.68 | 15557 | 27474
3 | 6:06.25 | 4:25.35 | 27475 | 47384
4 | 10:31.60 | 3:40.72 | 47385 | 63956
5 | 14:12.57 | 3:21.50 | 63957 | 79081
6 | 17:34.32 | 3:28.10 | 79082 | 94691
7 | 21:02.42 | 2:50.40 | 94692 | 107481
8 | 23:53.07 | 3:44.63 | 107482 | 124344
9 | 27:37.70 | 4:39.37 | 124345 | 145306
10 | 32:17.32 | 3:53.55 | 145307 | 162836
11 | 36:11.12 | 3:48.33 | 162837 | 179969
12 | 39:59.45 | 3:45.05 | 179970 | 196849
13 | 43:44.50 | 3:36.07 | 196850 | 213056
14 | 47:20.57 | 2:50.63 | 213057 | 225869
15 | 50:11.45 | 2:43.55 | 225870 | 238149
16 | 52:55.25 | 2:16.57 | 238150 | 248406
17 | 55:12.07 | 3:34.08 | 248407 | 264464
18 | 58:46.15 | 3:30.42 | 264465 | 280256
Range status and errors
Selected range
Filename F:\ЕАС\rwa12\Smokie - Forever (CD1).wav
Peak level 99.5 %
Extraction speed 2.4 X
Range quality 100.0 %
Test CRC EACDB616
Copy CRC EACDB616
Copy OK
No errors occurred
AccurateRip summary
Track 1 accurately ripped (confidence 1) [FFCD99D7] (AR v2)
Track 2 accurately ripped (confidence 1) [548022D4] (AR v2)
Track 3 accurately ripped (confidence 1) [7453CCFB] (AR v2)
Track 4 accurately ripped (confidence 1) [90C2815B] (AR v2)
Track 5 accurately ripped (confidence 1) [4269748A] (AR v2)
Track 6 accurately ripped (confidence 1) [F89F458A] (AR v2)
Track 7 accurately ripped (confidence 1) [32024B7E] (AR v2)
Track 8 accurately ripped (confidence 1) [13B887AB] (AR v2)
Track 9 accurately ripped (confidence 1) [398B7149] (AR v2)
Track 10 accurately ripped (confidence 1) [9F12E654] (AR v2)
Track 11 accurately ripped (confidence 1) [14C2F9B5] (AR v2)
Track 12 accurately ripped (confidence 1) [4D7C3B83] (AR v2)
Track 13 accurately ripped (confidence 1) [29870F14] (AR v2)
Track 14 accurately ripped (confidence 1) [DB4784EF] (AR v2)
Track 15 accurately ripped (confidence 1) [22225331] (AR v2)
Track 16 accurately ripped (confidence 1) [02BAD51F] (AR v2)
Track 17 accurately ripped (confidence 1) [AED4E5AE] (AR v2)
Track 18 accurately ripped (confidence 1) [7DEC64F6] (AR v2)
All tracks accurately ripped
End of status report
---- CUETools DB Plugin V2.1.6
[CTDB TOCID: WlI0eTgLqLMD11SBdHNy5NPgVeM-] found
Submit result: WlI0eTgLqLMD11SBdHNy5NPgVeM- has been confirmed
Track | CTDB Status
1 | (4/4) Accurately ripped
2 | (4/4) Accurately ripped
3 | (4/4) Accurately ripped
4 | (4/4) Accurately ripped
5 | (4/4) Accurately ripped
6 | (4/4) Accurately ripped
7 | (4/4) Accurately ripped
8 | (4/4) Accurately ripped
9 | (4/4) Accurately ripped
10 | (4/4) Accurately ripped
11 | (4/4) Accurately ripped
12 | (4/4) Accurately ripped
13 | (4/4) Accurately ripped
14 | (4/4) Accurately ripped
15 | (4/4) Accurately ripped
16 | (4/4) Accurately ripped
17 | (4/4) Accurately ripped
18 | (4/4) Accurately ripped
==== Log checksum 32305B3FEC24F7DD885E5FA419B32978AF0B0FC3BCFBBB1BA9D3FFFB051ADB2B ====

Содержание индексной карты (.CUE)

REM GENRE "Soft/Melodic Rock"
REM DATE 2000
REM DISCID F60E9812
REM COMMENT "ExactAudioCopy v1.3"
PERFORMER "Smokie"
TITLE "Forever (CD1)"
REM COMPOSER ""
FILE "Smokie - Forever (CD1).flac" WAVE
TRACK 01 AUDIO
TITLE "If You Think You Know How To Love Me"
PERFORMER "Smokie"
REM COMPOSER ""
INDEX 00 00:00:00
INDEX 01 00:00:32
TRACK 02 AUDIO
TITLE "It's Natural"
PERFORMER "Smokie"
REM COMPOSER ""
INDEX 00 03:26:32
INDEX 01 03:27:32
TRACK 03 AUDIO
TITLE "Light Up My Life"
PERFORMER "Smokie"
REM COMPOSER ""
INDEX 00 06:05:50
INDEX 01 06:06:25
TRACK 04 AUDIO
TITLE "Love's A Riot"
PERFORMER "Smokie"
REM COMPOSER ""
INDEX 00 10:31:10
INDEX 01 10:31:60
TRACK 05 AUDIO
TITLE "My Woman"
PERFORMER "Smokie"
REM COMPOSER ""
INDEX 00 14:12:07
INDEX 01 14:12:57
TRACK 06 AUDIO
TITLE "Now You Think You Know"
PERFORMER "Smokie"
REM COMPOSER ""
INDEX 00 17:33:57
INDEX 01 17:34:32
TRACK 07 AUDIO
TITLE "Petesey's Song"
PERFORMER "Smokie"
REM COMPOSER ""
INDEX 00 21:01:67
INDEX 01 21:02:42
TRACK 08 AUDIO
TITLE "Run To You"
PERFORMER "Smokie"
REM COMPOSER ""
INDEX 00 23:52:45
INDEX 01 23:53:07
TRACK 09 AUDIO
TITLE "Stranger"
PERFORMER "Smokie"
REM COMPOSER ""
INDEX 01 27:37:70
TRACK 10 AUDIO
TITLE "Take Me In"
PERFORMER "Smokie"
REM COMPOSER ""
INDEX 00 32:16:67
INDEX 01 32:17:32
TRACK 11 AUDIO
TITLE "The Girl Can't Help It"
PERFORMER "Smokie"
REM COMPOSER ""
INDEX 00 36:10:62
INDEX 01 36:11:12
TRACK 12 AUDIO
TITLE "Umbrella Day"
PERFORMER "Smokie"
REM COMPOSER ""
INDEX 00 39:58:20
INDEX 01 39:59:45
TRACK 13 AUDIO
TITLE "When My Back Was Against The Wall"
PERFORMER "Smokie"
REM COMPOSER ""
INDEX 00 43:43:50
INDEX 01 43:44:50
TRACK 14 AUDIO
TITLE "A Day At The Mother-In-Law's"
PERFORMER "Smokie"
REM COMPOSER ""
INDEX 00 47:20:32
INDEX 01 47:20:57
TRACK 15 AUDIO
TITLE "Back To Bradford"
PERFORMER "Smokie"
REM COMPOSER ""
INDEX 00 50:10:62
INDEX 01 50:11:45
TRACK 16 AUDIO
TITLE "Daydreamin'"
PERFORMER "Smokie"
REM COMPOSER ""
INDEX 00 52:53:12
INDEX 01 52:55:25
TRACK 17 AUDIO
TITLE "For A Few Dollars More"
PERFORMER "Smokie"
REM COMPOSER ""
INDEX 00 55:11:32
INDEX 01 55:12:07
TRACK 18 AUDIO
TITLE "Headspin"
PERFORMER "Smokie"
REM COMPOSER ""
INDEX 00 58:46:02
INDEX 01 58:46:15

DR Log

foobar2000 1.1.10 / Dynamic Range Meter 1.1.1
log date: 2019-04-20 16:10:07
--------------------------------------------------------------------------------
Analyzed: Smokie / Forever (CD1)
--------------------------------------------------------------------------------
DR Peak RMS Duration Track
--------------------------------------------------------------------------------
DR9 -0.08 dB -11.21 dB 3:27 ?-If You Think You Know How To Love Me
DR8 -0.06 dB -10.28 dB 2:39 ?-It's Natural
DR8 -0.08 dB -10.78 dB 4:25 ?-Light Up My Life
DR7 -0.08 dB -8.69 dB 3:41 ?-Love's A Riot
DR8 -0.09 dB -10.53 dB 3:22 ?-My Woman
DR10 -0.07 dB -11.28 dB 3:28 ?-Now You Think You Know
DR10 -0.08 dB -11.41 dB 2:51 ?-Petesey's Song
DR9 -0.05 dB -11.37 dB 3:45 ?-Run To You
DR9 -0.08 dB -10.80 dB 4:39 ?-Stranger
DR11 -0.08 dB -13.00 dB 3:54 ?-Take Me In
DR9 -0.08 dB -10.84 dB 3:48 ?-The Girl Can't Help It
DR7 -0.08 dB -9.88 dB 3:45 ?-Umbrella Day
DR11 -0.09 dB -14.29 dB 3:36 ?-When My Back Was Against The Wall
DR8 -0.04 dB -10.33 dB 2:51 ?-A Day At The Mother-In-Law's
DR10 -0.08 dB -11.91 dB 2:44 ?-Back To Bradford
DR7 -0.08 dB -8.54 dB 2:17 ?-Daydreamin'
DR9 -0.07 dB -10.51 dB 3:34 ?-For A Few Dollars More
DR9 -0.08 dB -10.29 dB 3:31 ?-Headspin
--------------------------------------------------------------------------------
Number of tracks: 18
Official DR value: DR9
Samplerate: 44100 Hz
Channels: 2
Bits per sample: 16
Bitrate: 955 kbps
Codec: FLAC
================================================================================

CD2

01. Living Next Door To Alice
02. Needles And Pins
03. Make Ya Boogie
04. Little Lucy
05. Talking Her Round
06. The Loser
07. Walk Right Back
08. Wild Wild Angels
09. It's Your Life
10. I'll Meet You At Midnight
11. Here Lies A Man
12. Give It To Me
13. Do To Me
14. You Took Me By Surprise
15. What Can I Do
16. Poor Lady (Midnight Baby)
17. San Francisco Bay
18. Oh Carol

Лог создания рипа

Exact Audio Copy V1.3 from 2. September 2016
EAC extraction logfile from 3. March 2019, 11:32
Smokie / Forever (CD2)
Used drive : TSSTcorpCDDVDW SH-224GB Adapter: 1 ID: 0
Read mode : Secure
Utilize accurate stream : Yes
Defeat audio cache : Yes
Make use of C2 pointers : No
Read offset correction : 6
Overread into Lead-In and Lead-Out : No
Fill up missing offset samples with silence : Yes
Delete leading and trailing silent blocks : No
Null samples used in CRC calculations : Yes
Used interface : Native Win32 interface for Win NT & 2000
Used output format : User Defined Encoder
Selected bitrate : 128 kBit/s
Quality : High
Add ID3 tag : No
Command line compressor : C:\Program Files (x86)\Exact Audio Copy\FLAC\FLAC.EXE
Additional command line options : -V -8 -T "Date=%year%" -T "Genre=%genre%" %source%
TOC of the extracted CD
Track | Start | Length | Start sector | End sector
---------------------------------------------------------
1 | 0:00.32 | 3:28.63 | 32 | 15694
2 | 3:29.20 | 2:44.62 | 15695 | 28056
3 | 6:14.07 | 5:13.45 | 28057 | 51576
4 | 11:27.52 | 3:45.43 | 51577 | 68494
5 | 15:13.20 | 2:39.72 | 68495 | 80491
6 | 17:53.17 | 3:02.50 | 80492 | 94191
7 | 20:55.67 | 5:31.40 | 94192 | 119056
8 | 26:27.32 | 3:56.63 | 119057 | 136819
9 | 30:24.20 | 3:33.52 | 136820 | 152846
10 | 33:57.72 | 3:16.18 | 152847 | 167564
11 | 37:14.15 | 3:18.62 | 167565 | 182476
12 | 40:33.02 | 4:06.05 | 182477 | 200931
13 | 44:39.07 | 3:20.00 | 200932 | 215931
14 | 47:59.07 | 3:38.25 | 215932 | 232306
15 | 51:37.32 | 3:37.50 | 232307 | 248631
16 | 55:15.07 | 4:42.40 | 248632 | 269821
17 | 59:57.47 | 3:16.13 | 269822 | 284534
18 | 63:13.60 | 3:39.10 | 284535 | 300969
Range status and errors
Selected range
Filename F:\ЕАС\rwa12\Smokie - Forever (CD2).wav
Peak level 99.9 %
Extraction speed 2.4 X
Range quality 100.0 %
Test CRC 7F075655
Copy CRC 7F075655
Copy OK
No errors occurred
AccurateRip summary
Track 1 accurately ripped (confidence 1) [4F9DD25F] (AR v2)
Track 2 accurately ripped (confidence 1) [0C571639] (AR v2)
Track 3 accurately ripped (confidence 1) [255031F4] (AR v2)
Track 4 accurately ripped (confidence 1) [6F38D315] (AR v2)
Track 5 accurately ripped (confidence 1) [E3A8DC3F] (AR v2)
Track 6 accurately ripped (confidence 1) [ECE348AA] (AR v2)
Track 7 accurately ripped (confidence 1) [C12DBF1F] (AR v2)
Track 8 accurately ripped (confidence 1) [AE8F33D2] (AR v2)
Track 9 accurately ripped (confidence 1) [34E8542C] (AR v2)
Track 10 accurately ripped (confidence 1) [3B3BEC16] (AR v2)
Track 11 accurately ripped (confidence 1) [E685DC9C] (AR v2)
Track 12 accurately ripped (confidence 1) [5459F4C5] (AR v2)
Track 13 accurately ripped (confidence 1) [7F6C99EC] (AR v2)
Track 14 accurately ripped (confidence 1) [C8A1408A] (AR v2)
Track 15 accurately ripped (confidence 1) [CCBB53D7] (AR v2)
Track 16 accurately ripped (confidence 1) [40F16CD8] (AR v2)
Track 17 accurately ripped (confidence 1) [EB5A9F36] (AR v2)
Track 18 accurately ripped (confidence 1) [011213F9] (AR v2)
All tracks accurately ripped
End of status report
---- CUETools DB Plugin V2.1.6
[CTDB TOCID: J2dXE_Ty3Y16euBh2wVZFwbZjA4-] found
Submit result: J2dXE_Ty3Y16euBh2wVZFwbZjA4- has been confirmed
Track | CTDB Status
1 | (4/4) Accurately ripped
2 | (4/4) Accurately ripped
3 | (4/4) Accurately ripped
4 | (4/4) Accurately ripped
5 | (4/4) Accurately ripped
6 | (4/4) Accurately ripped
7 | (4/4) Accurately ripped
8 | (4/4) Accurately ripped
9 | (4/4) Accurately ripped
10 | (4/4) Accurately ripped
11 | (4/4) Accurately ripped
12 | (4/4) Accurately ripped
13 | (4/4) Accurately ripped
14 | (4/4) Accurately ripped
15 | (4/4) Accurately ripped
16 | (4/4) Accurately ripped
17 | (4/4) Accurately ripped
18 | (4/4) Accurately ripped
==== Log checksum 21BEB2583180D134F9E4A067B73DFA2CF1818613B15CA353C1419DB91CBFC8F4 ====

Содержание индексной карты (.CUE)

REM GENRE "Soft/Melodic Rock"
REM DATE 2000
REM DISCID 230FAC12
REM COMMENT "ExactAudioCopy v1.3"
PERFORMER "Smokie"
TITLE "Forever (CD2)"
REM COMPOSER ""
FILE "Smokie - Forever (CD2).flac" WAVE
TRACK 01 AUDIO
TITLE "Living Next Door To Alice"
PERFORMER "Smokie"
REM COMPOSER ""
INDEX 00 00:00:00
INDEX 01 00:00:32
TRACK 02 AUDIO
TITLE "Needles And Pins"
PERFORMER "Smokie"
REM COMPOSER ""
INDEX 00 03:28:20
INDEX 01 03:29:20
TRACK 03 AUDIO
TITLE "Make Ya Boogie"
PERFORMER "Smokie"
REM COMPOSER ""
INDEX 00 06:13:12
INDEX 01 06:14:07
TRACK 04 AUDIO
TITLE "Little Lucy"
PERFORMER "Smokie"
REM COMPOSER ""
INDEX 00 11:26:52
INDEX 01 11:27:52
TRACK 05 AUDIO
TITLE "Talking Her Round"
PERFORMER "Smokie"
REM COMPOSER ""
INDEX 00 15:12:57
INDEX 01 15:13:20
TRACK 06 AUDIO
TITLE "The Loser"
PERFORMER "Smokie"
REM COMPOSER ""
INDEX 00 17:52:67
INDEX 01 17:53:17
TRACK 07 AUDIO
TITLE "Walk Right Back"
PERFORMER "Smokie"
REM COMPOSER ""
INDEX 00 20:54:67
INDEX 01 20:55:67
TRACK 08 AUDIO
TITLE "Wild Wild Angels"
PERFORMER "Smokie"
REM COMPOSER ""
INDEX 00 26:26:15
INDEX 01 26:27:32
TRACK 09 AUDIO
TITLE "It's Your Life"
PERFORMER "Smokie"
REM COMPOSER ""
INDEX 00 30:23:62
INDEX 01 30:24:20
TRACK 10 AUDIO
TITLE "I'll Meet You At Midnight"
PERFORMER "Smokie"
REM COMPOSER ""
INDEX 00 33:57:22
INDEX 01 33:57:72
TRACK 11 AUDIO
TITLE "Here Lies A Man"
PERFORMER "Smokie"
REM COMPOSER ""
INDEX 00 37:13:25
INDEX 01 37:14:15
TRACK 12 AUDIO
TITLE "Give It To Me"
PERFORMER "Smokie"
REM COMPOSER ""
INDEX 00 40:32:15
INDEX 01 40:33:02
TRACK 13 AUDIO
TITLE "Do To Me"
PERFORMER "Smokie"
REM COMPOSER ""
INDEX 00 44:38:07
INDEX 01 44:39:07
TRACK 14 AUDIO
TITLE "You Took Me By Surprise"
PERFORMER "Smokie"
REM COMPOSER ""
INDEX 00 47:58:15
INDEX 01 47:59:07
TRACK 15 AUDIO
TITLE "What Can I Do"
PERFORMER "Smokie"
REM COMPOSER ""
INDEX 00 51:36:45
INDEX 01 51:37:32
TRACK 16 AUDIO
TITLE "Poor Lady (Midnight Baby)"
PERFORMER "Smokie"
REM COMPOSER ""
INDEX 00 55:14:22
INDEX 01 55:15:07
TRACK 17 AUDIO
TITLE "San Francisco Bay"
PERFORMER "Smokie"
REM COMPOSER ""
INDEX 00 59:56:35
INDEX 01 59:57:47
TRACK 18 AUDIO
TITLE "Oh Carol"
PERFORMER "Smokie"
REM COMPOSER ""
INDEX 00 63:13:20
INDEX 01 63:13:60

DR Log

foobar2000 1.1.10 / Dynamic Range Meter 1.1.1
log date: 2019-04-20 16:09:49
--------------------------------------------------------------------------------
Analyzed: Smokie / Forever (CD2)
--------------------------------------------------------------------------------
DR Peak RMS Duration Track
--------------------------------------------------------------------------------
DR9 -0.08 dB -11.65 dB 3:29 ?-Living Next Door To Alice
DR10 -0.09 dB -10.81 dB 2:45 ?-Needles And Pins
DR9 -0.01 dB -10.35 dB 5:14 ?-Make Ya Boogie
DR8 -0.08 dB -10.23 dB 3:46 ?-Little Lucy
DR10 -0.08 dB -11.98 dB 2:40 ?-Talking Her Round
DR8 -0.08 dB -9.45 dB 3:03 ?-The Loser
DR9 -0.08 dB -10.96 dB 5:32 ?-Walk Right Back
DR8 -0.08 dB -11.00 dB 3:57 ?-Wild Wild Angels
DR9 -0.08 dB -11.90 dB 3:34 ?-It's Your Life
DR9 -0.08 dB -11.33 dB 3:16 ?-I'll Meet You At Midnight
DR11 -0.08 dB -12.97 dB 3:19 ?-Here Lies A Man
DR8 -0.08 dB -9.68 dB 4:06 ?-Give It To Me
DR10 -0.08 dB -12.19 dB 3:20 ?-Do To Me
DR9 -0.08 dB -11.64 dB 3:38 ?-You Took Me By Surprise
DR9 -0.08 dB -10.65 dB 3:38 ?-What Can I Do
DR9 -0.08 dB -10.56 dB 4:43 ?-Poor Lady (Midnight Baby)
DR9 -0.08 dB -11.07 dB 3:16 ?-San Francisco Bay
DR10 -0.08 dB -11.45 dB 3:39 ?-Oh Carol
--------------------------------------------------------------------------------
Number of tracks: 18
Official DR value: DR9
Samplerate: 44100 Hz
Channels: 2
Bits per sample: 16
Bitrate: 951 kbps
Codec: FLAC
================================================================================

CD3

01. Don't Play Your Rock 'N' Roll To Me
02. Goin' Tomorrow
03. I Can't Stay Here Tonight
04. In The Heat Of The Night
05. Julie
06. Babe It's Up To You
07. Changing All The Time
08. Liverpool Docks
09. Will You Love Me
10. We're Flyin' High
11. Think Of Me
12. The Coldest Night
13. Sunshine Avenue
14. Shy Guy
15. Power Of Love
16. Oh Well, Oh Well
17. No More Letters
18. Mexican Girl

Лог создания рипа

Exact Audio Copy V1.3 from 2. September 2016
EAC extraction logfile from 15. March 2019, 10:07
Smokie / Forever (CD3)
Used drive : TSSTcorpCDDVDW SH-224GB Adapter: 1 ID: 0
Read mode : Secure
Utilize accurate stream : Yes
Defeat audio cache : Yes
Make use of C2 pointers : No
Read offset correction : 6
Overread into Lead-In and Lead-Out : No
Fill up missing offset samples with silence : Yes
Delete leading and trailing silent blocks : No
Null samples used in CRC calculations : Yes
Used interface : Native Win32 interface for Win NT & 2000
Used output format : User Defined Encoder
Selected bitrate : 128 kBit/s
Quality : High
Add ID3 tag : No
Command line compressor : C:\Program Files (x86)\Exact Audio Copy\FLAC\FLAC.EXE
Additional command line options : -V -8 -T "Date=%year%" -T "Genre=%genre%" %source%
TOC of the extracted CD
Track | Start | Length | Start sector | End sector
---------------------------------------------------------
1 | 0:00.32 | 3:19.68 | 32 | 15024
2 | 3:20.25 | 3:43.37 | 15025 | 31786
3 | 7:03.62 | 4:07.70 | 31787 | 50381
4 | 11:11.57 | 4:47.38 | 50382 | 71944
5 | 15:59.20 | 3:02.50 | 71945 | 85644
6 | 19:01.70 | 3:43.12 | 85645 | 102381
7 | 22:45.07 | 3:22.68 | 102382 | 117599
8 | 26:08.00 | 2:57.55 | 117600 | 130929
9 | 29:05.55 | 3:43.55 | 130930 | 147709
10 | 32:49.35 | 3:54.22 | 147710 | 165281
11 | 36:43.57 | 4:43.20 | 165282 | 186526
12 | 41:27.02 | 4:14.63 | 186527 | 205639
13 | 45:41.65 | 3:11.55 | 205640 | 220019
14 | 48:53.45 | 3:25.00 | 220020 | 235394
15 | 52:18.45 | 1:57.00 | 235395 | 244169
16 | 54:15.45 | 3:16.42 | 244170 | 258911
17 | 57:32.12 | 3:29.70 | 258912 | 274656
18 | 61:02.07 | 3:57.63 | 274657 | 292494
Range status and errors
Selected range
Filename F:\ЕАС\rwa12\Smokie - Forever (CD3).wav
Peak level 100.0 %
Extraction speed 2.4 X
Range quality 100.0 %
Test CRC 7D8E7AFD
Copy CRC 7D8E7AFD
Copy OK
No errors occurred
AccurateRip summary
Track 1 accurately ripped (confidence 1) [AF91084B] (AR v2)
Track 2 accurately ripped (confidence 1) [C2AAB3D0] (AR v2)
Track 3 accurately ripped (confidence 1) [FC6B51F5] (AR v2)
Track 4 accurately ripped (confidence 1) [F2619798] (AR v2)
Track 5 accurately ripped (confidence 1) [B620F3D6] (AR v2)
Track 6 accurately ripped (confidence 1) [E0F51408] (AR v2)
Track 7 accurately ripped (confidence 1) [D70AD494] (AR v2)
Track 8 accurately ripped (confidence 1) [24A3FE38] (AR v2)
Track 9 accurately ripped (confidence 1) [96BABDE1] (AR v2)
Track 10 accurately ripped (confidence 1) [16298166] (AR v2)
Track 11 accurately ripped (confidence 1) [236B628D] (AR v2)
Track 12 accurately ripped (confidence 1) [626AD289] (AR v2)
Track 13 accurately ripped (confidence 1) [0ECDFB21] (AR v2)
Track 14 accurately ripped (confidence 1) [C2449B5E] (AR v2)
Track 15 accurately ripped (confidence 1) [D0B342B8] (AR v2)
Track 16 accurately ripped (confidence 1) [71628EB3] (AR v2)
Track 17 accurately ripped (confidence 1) [005092FB] (AR v2)
Track 18 accurately ripped (confidence 1) [2E4BF082] (AR v2)
All tracks accurately ripped
End of status report
---- CUETools DB Plugin V2.1.6
[CTDB TOCID: 2UL.NQP_5TnEfoSJOzdlHob7chs-] found
Submit result: 2UL.NQP_5TnEfoSJOzdlHob7chs- has been confirmed
Track | CTDB Status
1 | (2/2) Accurately ripped
2 | (2/2) Accurately ripped
3 | (2/2) Accurately ripped
4 | (2/2) Accurately ripped
5 | (2/2) Accurately ripped
6 | (2/2) Accurately ripped
7 | (2/2) Accurately ripped
8 | (2/2) Accurately ripped
9 | (2/2) Accurately ripped
10 | (2/2) Accurately ripped
11 | (2/2) Accurately ripped
12 | (2/2) Accurately ripped
13 | (2/2) Accurately ripped
14 | (2/2) Accurately ripped
15 | (2/2) Accurately ripped
16 | (2/2) Accurately ripped
17 | (2/2) Accurately ripped
18 | (2/2) Accurately ripped
==== Log checksum 25FE371387412CC82D484896D8C83C6BA238A82F8D77EA8344504B89723655D8 ====

Содержание индексной карты (.CUE)

REM GENRE "Soft/Melodic Rock"
REM DATE 2000
REM DISCID FC0F3B12
REM COMMENT "ExactAudioCopy v1.3"
PERFORMER "Smokie"
TITLE "Forever (CD3)"
REM COMPOSER ""
FILE "Smokie - Forever (CD3).flac" WAVE
TRACK 01 AUDIO
TITLE "Don't Play Your Rock 'N' Roll To Me"
PERFORMER "Smokie"
REM COMPOSER ""
INDEX 00 00:00:00
INDEX 01 00:00:32
TRACK 02 AUDIO
TITLE "Goin' Tomorrow"
PERFORMER "Smokie"
REM COMPOSER ""
INDEX 00 03:18:50
INDEX 01 03:20:25
TRACK 03 AUDIO
TITLE "I Can't Stay Here Tonight"
PERFORMER "Smokie"
REM COMPOSER ""
INDEX 00 07:02:57
INDEX 01 07:03:62
TRACK 04 AUDIO
TITLE "In The Heat Of The Night"
PERFORMER "Smokie"
REM COMPOSER ""
INDEX 00 11:10:45
INDEX 01 11:11:57
TRACK 05 AUDIO
TITLE "Julie"
PERFORMER "Smokie"
REM COMPOSER ""
INDEX 00 15:58:07
INDEX 01 15:59:20
TRACK 06 AUDIO
TITLE "Babe It's Up To You"
PERFORMER "Smokie"
REM COMPOSER ""
INDEX 00 19:00:70
INDEX 01 19:01:70
TRACK 07 AUDIO
TITLE "Changing All The Time"
PERFORMER "Smokie"
REM COMPOSER ""
INDEX 00 22:44:47
INDEX 01 22:45:07
TRACK 08 AUDIO
TITLE "Liverpool Docks"
PERFORMER "Smokie"
REM COMPOSER ""
INDEX 00 26:07:12
INDEX 01 26:08:00
TRACK 09 AUDIO
TITLE "Will You Love Me"
PERFORMER "Smokie"
REM COMPOSER ""
INDEX 00 29:05:17
INDEX 01 29:05:55
TRACK 10 AUDIO
TITLE "We're Flyin' High"
PERFORMER "Smokie"
REM COMPOSER ""
INDEX 00 32:48:47
INDEX 01 32:49:35
TRACK 11 AUDIO
TITLE "Think Of Me"
PERFORMER "Smokie"
REM COMPOSER ""
INDEX 00 36:42:45
INDEX 01 36:43:57
TRACK 12 AUDIO
TITLE "The Coldest Night"
PERFORMER "Smokie"
REM COMPOSER ""
INDEX 00 41:25:72
INDEX 01 41:27:02
TRACK 13 AUDIO
TITLE "Sunshine Avenue"
PERFORMER "Smokie"
REM COMPOSER ""
INDEX 00 45:40:70
INDEX 01 45:41:65
TRACK 14 AUDIO
TITLE "Shy Guy"
PERFORMER "Smokie"
REM COMPOSER ""
INDEX 00 48:52:32
INDEX 01 48:53:45
TRACK 15 AUDIO
TITLE "Power Of Love"
PERFORMER "Smokie"
REM COMPOSER ""
INDEX 00 52:17:32
INDEX 01 52:18:45
TRACK 16 AUDIO
TITLE "Oh Well, Oh Well"
PERFORMER "Smokie"
REM COMPOSER ""
INDEX 00 54:14:57
INDEX 01 54:15:45
TRACK 17 AUDIO
TITLE "No More Letters"
PERFORMER "Smokie"
REM COMPOSER ""
INDEX 00 57:31:50
INDEX 01 57:32:12
TRACK 18 AUDIO
TITLE "Mexican Girl"
PERFORMER "Smokie"
REM COMPOSER ""
INDEX 00 61:00:40
INDEX 01 61:02:07

DR Log

foobar2000 1.1.10 / Dynamic Range Meter 1.1.1
log date: 2019-04-20 16:10:31
--------------------------------------------------------------------------------
Analyzed: Smokie / Forever (CD3)
--------------------------------------------------------------------------------
DR Peak RMS Duration Track
--------------------------------------------------------------------------------
DR9 -0.09 dB -10.21 dB 3:20 ?-Don't Play Your Rock 'N' Roll To Me
DR7 -0.04 dB -8.42 dB 3:43 ?-Goin' Tomorrow
DR9 -0.08 dB -10.07 dB 4:08 ?-I Can't Stay Here Tonight
DR10 -0.09 dB -12.40 dB 4:48 ?-In The Heat Of The Night
DR8 -0.09 dB -11.37 dB 3:03 ?-Julie
DR9 -0.08 dB -11.30 dB 3:43 ?-Babe It's Up To You
DR9 0.00 dB -11.02 dB 3:23 ?-Changing All The Time
DR9 -0.09 dB -11.40 dB 2:58 ?-Liverpool Docks
DR8 -0.04 dB -9.92 dB 3:44 ?-Will You Love Me
DR10 -0.09 dB -11.78 dB 3:54 ?-We're Flyin' High
DR9 -0.08 dB -11.82 dB 4:43 ?-Think Of Me
DR9 -0.09 dB -10.41 dB 4:15 ?-The Coldest Night
DR10 -0.08 dB -11.21 dB 3:12 ?-Sunshine Avenue
DR9 -0.09 dB -10.76 dB 3:25 ?-Shy Guy
DR10 -0.09 dB -11.87 dB 1:57 ?-Power Of Love
DR8 -0.08 dB -10.88 dB 3:17 ?-Oh Well, Oh Well
DR11 -0.09 dB -13.83 dB 3:30 ?-No More Letters
DR10 -0.09 dB -12.26 dB 3:58 ?-Mexican Girl
--------------------------------------------------------------------------------
Number of tracks: 18
Official DR value: DR9
Samplerate: 44100 Hz
Channels: 2
Bits per sample: 16
Bitrate: 936 kbps
Codec: FLAC
================================================================================

CD4

01. Baby It's You
02. Couldn't Live
03. Don't Turn Out Your Light
04. Going Home
05. I Do Declare
06. It Makes Me Money
07. Miss You
08. No One Could Ever Love You More
09. Pass It Around
10. Roll On Baby
11. Something's Been Making Me Blue
12. Train Song
13. The Dancer
14. Take Good Care Of My Baby
15. Lay Back In The Arms Of Someone
Bonus Tracks
16. A Stranger With You - Chris Norman & Suzi Quatro
17. Stumblin' In - Chris Norman & Suzi Quatro
18. Who The X Is Alice? (Living Next Door To Alice) - Gompie Alice

Лог создания рипа

Exact Audio Copy V1.3 from 2. September 2016
EAC extraction logfile from 15. March 2019, 13:45
Smokie / Forever (CD4)
Used drive : TSSTcorpCDDVDW SH-224GB Adapter: 1 ID: 0
Read mode : Secure
Utilize accurate stream : Yes
Defeat audio cache : Yes
Make use of C2 pointers : No
Read offset correction : 6
Overread into Lead-In and Lead-Out : No
Fill up missing offset samples with silence : Yes
Delete leading and trailing silent blocks : No
Null samples used in CRC calculations : Yes
Used interface : Native Win32 interface for Win NT & 2000
Used output format : User Defined Encoder
Selected bitrate : 128 kBit/s
Quality : High
Add ID3 tag : No
Command line compressor : C:\Program Files (x86)\Exact Audio Copy\FLAC\FLAC.EXE
Additional command line options : -V -8 -T "Date=%year%" -T "Genre=%genre%" %source%
TOC of the extracted CD
Track | Start | Length | Start sector | End sector
---------------------------------------------------------
1 | 0:00.32 | 3:51.33 | 32 | 17389
2 | 3:51.65 | 2:24.55 | 17390 | 28244
3 | 6:16.45 | 4:00.40 | 28245 | 46284
4 | 10:17.10 | 7:32.10 | 46285 | 80194
5 | 17:49.20 | 3:45.50 | 80195 | 97119
6 | 21:34.70 | 2:56.37 | 97120 | 110356
7 | 24:31.32 | 3:35.25 | 110357 | 126506
8 | 28:06.57 | 2:31.15 | 126507 | 137846
9 | 30:37.72 | 3:07.23 | 137847 | 151894
10 | 33:45.20 | 2:40.65 | 151895 | 163959
11 | 36:26.10 | 3:00.30 | 163960 | 177489
12 | 39:26.40 | 4:44.22 | 177490 | 198811
13 | 44:10.62 | 3:51.40 | 198812 | 216176
14 | 48:02.27 | 3:24.18 | 216177 | 231494
15 | 51:26.45 | 4:06.25 | 231495 | 249969
16 | 55:32.70 | 3:51.70 | 249970 | 267364
17 | 59:24.65 | 3:57.72 | 267365 | 285211
18 | 63:22.62 | 3:57.20 | 285212 | 303006
Range status and errors
Selected range
Filename F:\ЕАС\rwa12\Smokie - Forever (CD4).wav
Peak level 99.9 %
Extraction speed 2.3 X
Range quality 99.9 %
Test CRC 77C1F188
Copy CRC 77C1F188
Copy OK
No errors occurred
AccurateRip summary
Track 1 accurately ripped (confidence 1) [B31FBD32] (AR v2)
Track 2 accurately ripped (confidence 1) [8DC4FCEA] (AR v2)
Track 3 accurately ripped (confidence 1) [EF9D68A3] (AR v2)
Track 4 accurately ripped (confidence 1) [E8C2D227] (AR v2)
Track 5 accurately ripped (confidence 1) [84F8F18D] (AR v2)
Track 6 accurately ripped (confidence 1) [DA58466F] (AR v2)
Track 7 accurately ripped (confidence 1) [9C79BF74] (AR v2)
Track 8 accurately ripped (confidence 1) [D8F500EA] (AR v2)
Track 9 accurately ripped (confidence 1) [27C85812] (AR v2)
Track 10 accurately ripped (confidence 1) [DD067A0B] (AR v2)
Track 11 accurately ripped (confidence 1) [1EF040F1] (AR v2)
Track 12 accurately ripped (confidence 1) [835B27D9] (AR v2)
Track 13 accurately ripped (confidence 1) [F07BC8C4] (AR v2)
Track 14 accurately ripped (confidence 1) [F425C303] (AR v2)
Track 15 accurately ripped (confidence 1) [0384CBBF] (AR v2)
Track 16 accurately ripped (confidence 1) [EA434E62] (AR v2)
Track 17 accurately ripped (confidence 1) [DAE8D526] (AR v2)
Track 18 accurately ripped (confidence 1) [4E469C4D] (AR v2)
All tracks accurately ripped
End of status report
---- CUETools DB Plugin V2.1.6
[CTDB TOCID: P2l.bukQGtqSqaraC_eL2QtH4GI-] found
Submit result: P2l.bukQGtqSqaraC_eL2QtH4GI- has been confirmed
Track | CTDB Status
1 | (4/4) Accurately ripped
2 | (4/4) Accurately ripped
3 | (4/4) Accurately ripped
4 | (4/4) Accurately ripped
5 | (4/4) Accurately ripped
6 | (4/4) Accurately ripped
7 | (4/4) Accurately ripped
8 | (4/4) Accurately ripped
9 | (4/4) Accurately ripped
10 | (4/4) Accurately ripped
11 | (4/4) Accurately ripped
12 | (4/4) Accurately ripped
13 | (4/4) Accurately ripped
14 | (4/4) Accurately ripped
15 | (4/4) Accurately ripped
16 | (4/4) Accurately ripped
17 | (4/4) Accurately ripped
18 | (4/4) Accurately ripped
==== Log checksum 278E47588E67ACB8090A92E64F61EF17729F3E0281BF1E1C90D6216E353C5253 ====

Содержание индексной карты (.CUE)

REM GENRE "Soft/Melodic Rock"
REM DATE 2000
REM DISCID 1C0FC812
REM COMMENT "ExactAudioCopy v1.3"
PERFORMER "Smokie"
TITLE "Forever (CD4)"
REM COMPOSER ""
FILE "Smokie - Forever (CD4).flac" WAVE
TRACK 01 AUDIO
TITLE "Baby It's You"
PERFORMER "Smokie"
REM COMPOSER ""
INDEX 00 00:00:00
INDEX 01 00:00:32
TRACK 02 AUDIO
TITLE "Couldn't Live"
PERFORMER "Smokie"
REM COMPOSER ""
INDEX 00 03:51:02
INDEX 01 03:51:65
TRACK 03 AUDIO
TITLE "Don't Turn Out Your Light"
PERFORMER "Smokie"
REM COMPOSER ""
INDEX 00 06:15:45
INDEX 01 06:16:45
TRACK 04 AUDIO
TITLE "Going Home"
PERFORMER "Smokie"
REM COMPOSER ""
INDEX 00 10:16:17
INDEX 01 10:17:10
TRACK 05 AUDIO
TITLE "I Do Declare"
PERFORMER "Smokie"
REM COMPOSER ""
INDEX 00 17:48:32
INDEX 01 17:49:20
TRACK 06 AUDIO
TITLE "It Makes Me Money"
PERFORMER "Smokie"
REM COMPOSER ""
INDEX 00 21:33:45
INDEX 01 21:34:70
TRACK 07 AUDIO
TITLE "Miss You"
PERFORMER "Smokie"
REM COMPOSER ""
INDEX 00 24:30:52
INDEX 01 24:31:32
TRACK 08 AUDIO
TITLE "No One Could Ever Love You More"
PERFORMER "Smokie"
REM COMPOSER ""
INDEX 00 28:05:32
INDEX 01 28:06:57
TRACK 09 AUDIO
TITLE "Pass It Around"
PERFORMER "Smokie"
REM COMPOSER ""
INDEX 00 30:37:35
INDEX 01 30:37:72
TRACK 10 AUDIO
TITLE "Roll On Baby"
PERFORMER "Smokie"
REM COMPOSER ""
INDEX 00 33:44:07
INDEX 01 33:45:20
TRACK 11 AUDIO
TITLE "Something's Been Making Me Blue"
PERFORMER "Smokie"
REM COMPOSER ""
INDEX 00 36:24:47
INDEX 01 36:26:10
TRACK 12 AUDIO
TITLE "Train Song"
PERFORMER "Smokie"
REM COMPOSER ""
INDEX 00 39:25:65
INDEX 01 39:26:40
TRACK 13 AUDIO
TITLE "The Dancer"
PERFORMER "Smokie"
REM COMPOSER ""
INDEX 00 44:09:50
INDEX 01 44:10:62
TRACK 14 AUDIO
TITLE "Take Good Care Of My Baby"
PERFORMER "Smokie"
REM COMPOSER ""
INDEX 00 48:00:65
INDEX 01 48:02:27
TRACK 15 AUDIO
TITLE "Lay Back In The Arms Of Someone"
PERFORMER "Smokie"
REM COMPOSER ""
INDEX 00 51:25:70
INDEX 01 51:26:45
TRACK 16 AUDIO
TITLE "A Stranger With You (Chris Norman & Suzi Quatro)"
PERFORMER "Smokie"
REM COMPOSER ""
INDEX 00 55:31:52
INDEX 01 55:32:70
TRACK 17 AUDIO
TITLE "Stumblin' In (Chris Norman & Suzi Quatro)"
PERFORMER "Smokie"
REM COMPOSER ""
INDEX 00 59:24:15
INDEX 01 59:24:65
TRACK 18 AUDIO
TITLE "Gompie Alice (Who The X Is Alice?) (Living Next Door To Alice)"
PERFORMER "Smokie"
REM COMPOSER ""
INDEX 00 63:21:45
INDEX 01 63:22:62

DR Log

foobar2000 1.1.10 / Dynamic Range Meter 1.1.1
log date: 2019-04-20 16:11:24
--------------------------------------------------------------------------------
Analyzed: Smokie / Forever (CD4)
--------------------------------------------------------------------------------
DR Peak RMS Duration Track
--------------------------------------------------------------------------------
DR8 -0.08 dB -10.91 dB 3:51 ?-Baby It's You
DR9 -0.08 dB -9.86 dB 2:25 ?-Couldn't Live
DR8 -0.08 dB -12.40 dB 4:01 ?-Don't Turn Out Your Light
DR10 -0.01 dB -12.88 dB 7:32 ?-Going Home
DR8 -0.08 dB -8.81 dB 3:46 ?-I Do Declare
DR8 -0.09 dB -9.71 dB 2:56 ?-It Makes Me Money
DR10 -0.09 dB -11.72 dB 3:35 ?-Miss You
DR9 -0.08 dB -11.07 dB 2:31 ?-No One Could Ever Love You More
DR8 -0.08 dB -9.54 dB 3:07 ?-Pass It Around
DR9 -0.08 dB -9.90 dB 2:41 ?-Roll On Baby
DR9 -0.08 dB -10.96 dB 3:00 ?-Something's Been Making Me Blue
DR10 -0.08 dB -11.96 dB 4:44 ?-Train Song
DR9 -0.08 dB -11.52 dB 3:52 ?-The Dancer
DR9 -0.08 dB -10.66 dB 3:24 ?-Take Good Care Of My Baby
DR9 -0.08 dB -10.44 dB 4:06 ?-Lay Back In The Arms Of Someone
DR9 -0.09 dB -10.71 dB 3:52 ?-A Stranger With You (Chris Norman & Suzi Quatro)
DR8 -0.08 dB -10.18 dB 3:58 ?-Stumblin' In (Chris Norman & Suzi Quatro)
DR9 -0.08 dB -11.36 dB 3:57 ?-Gompie Alice (Who The X Is Alice?) (Living Next Door To Alice)
--------------------------------------------------------------------------------
Number of tracks: 18
Official DR value: DR9
Samplerate: 44100 Hz
Channels: 2
Bits per sample: 16
Bitrate: 937 kbps
Codec: FLAC
================================================================================
-Раздаю до первых 5-ти скачавших, на раздачи не возвращаюсь...-
[torrents24.ru].t81514.torrent 
Торрент: Зарегистрирован [ 2019-04-21 16:45 ] · 740282E325286087AC1974B30B32D0CA7CF0F473

Скачать .torrent

Скачать

20 KB

Статус: проверено
Скачан: 0 раз
Размер: 1,75 GB
terms.php
[Профиль] [ЛС]
Показать сообщения:    
Ответить на тему

Текущее время: 26-Июн 09:36

Часовой пояс: UTC + 3



Вы не можете начинать темы
Вы не можете отвечать на сообщения
Вы не можете редактировать свои сообщения
Вы не можете удалять свои сообщения
Вы не можете голосовать в опросах
Вы не можете прикреплять файлы к сообщениям
Вы можете скачивать файлы

Интересное в сети