Блэйз / Blaze (Итан Хоук / Ethan Hawke) [2018, США, драма, биография, музыка, BDRip] MVO (HDRezka Studio) + Original (Eng) + Sub (Rus, Eng)

Ответить на тему
Статистика раздачи
Размер:  1,46 GB   |    Зарегистрирован:  8 дней   |    Скачан:  0 раз

Полного источника не было: Никогда

 
   
 
 
Автор Сообщение

RealMan ®

Пол: Не указан

Стаж: 1 год 2 месяца

Сообщений: 490

Создавать темы 14-Апр-2019 15:12

[Цитировать]

Блэйз / Blaze- Год выхода: 2018
Страна: США
Жанр: драма, биография, музыка
Продолжительность: 02:08:43
Перевод: Любительский (многоголосый закадровый) HDRezka Studio
Субтитры: Русские (ненормативная лексика), Английские (внешние *.srt)
Оригинальная аудиодорожка: Английская-Режиссер:
Итан Хоук / Ethan Hawke-В ролях:
Бен Дики, Алиа Шокат, Чарли Секстон, Джош Хэмилтон, Крис Кристофферсон, Ричард Линклейтер, Сэм Рокуэлл, Стив Зан, Гурф Морликс, Итан Хоук-О фильме:
Портрет маргинального певца и поэта-песенника Блэйза Фоли, обогатившего репертуар многих легенд кантри-музыки: Мерла Хаггарда, Вилли Нельсона, Лайла Ловетта, Джона Прайна. Его жизнь, любовь и творчество выходили за рамки всех стандартных сценариев и установок.-Релиз групп | | IMDB | КиноПоиск | Сэмпл |-Качество: BDRip [Blaze.2018.COMPLETE.BLURAY-BD4U]
Формат: AVI
Видео: 720x304 (2.37:1), 23.976 fps, XviD build 67 ~1229 kbps avg, 0.23 bit/pixel
Аудио #1: 48 kHz, AC3 Dolby Digital, 2/0 (L,R) ch, ~192 kbps avg (RUS)
Аудио #2: 48 kHz, AC3 Dolby Digital, 2/0 (L,R) ch, ~192 kbps avg (ENG)-

Скриншоты

-

MediaInfo

Код:Полное имя : D:\Blaze_2018_BDRip_MVO_by_Dalemake.avi
Формат : AVI
Формат/Информация : Audio Video Interleave
Размер файла : 1,46 Гбайт
Продолжительность : 2 ч. 8 м.
Общий поток : 1628 Кбит/сек
Программа кодирования : VirtualDubMod 1.5.10.3 | www.virtualdub-fr.org || (build 2550/release)
Библиотека кодирования : VirtualDubMod build 2550/release
Видео
Идентификатор : 0
Формат : MPEG-4 Visual
Профиль формата : Advanced Simple@L5
Параметр BVOP формата : 1
Параметр QPel формата : Нет
Параметр GMC формата : Без точки перехода
Параметр матрицы формата : Выборочная
Идентификатор кодека : XVID
Идентификатор кодека/Подсказка : XviD
Продолжительность : 2 ч. 8 м.
Битрейт : 1230 Кбит/сек
Ширина : 720 пикселей
Высота : 304 пикселя
Соотношение сторон : 2,35:1
Частота кадров : 23,976 кадра/сек
Цветовое пространство : YUV
Субдискретизация насыщенности : 4:2:0
Битовая глубина : 8 бит
Тип развёртки : Прогрессивная
Метод сжатия : С потерями
Бит/(Пиксели*Кадры) : 0.234
Размер потока : 1,11 Гбайт (76%)
Библиотека кодирования : XviD 67
Аудио #1
Идентификатор : 1
Формат : AC-3
Формат/Информация : Audio Coding 3
Расширение режима : CM (complete main)
Параметр Endianness формата : Big
Идентификатор кодека : 2000
Продолжительность : 2 ч. 8 м.
Вид битрейта : Постоянный
Битрейт : 192 Кбит/сек
Каналы : 2 канала
Расположение каналов : Front: L R
Частота : 48,0 КГц
Битовая глубина : 16 бит
Метод сжатия : С потерями
Размер потока : 177 Мбайт (12%)
Выравнивание : Разделение по промежуткам
Продолжительность промежутка : 42 мс. (1,00 видеокадр)
Время предзагрузки промежутка : 500 мс.
Аудио #2
Идентификатор : 2
Формат : AC-3
Формат/Информация : Audio Coding 3
Расширение режима : CM (complete main)
Параметр Endianness формата : Big
Идентификатор кодека : 2000
Продолжительность : 2 ч. 8 м.
Вид битрейта : Постоянный
Битрейт : 192 Кбит/сек
Каналы : 2 канала
Расположение каналов : Front: L R
Частота : 48,0 КГц
Битовая глубина : 16 бит
Метод сжатия : С потерями
Размер потока : 177 Мбайт (12%)
Выравнивание : Разделение по промежуткам
Продолжительность промежутка : 42 мс. (1,00 видеокадр)
Время предзагрузки промежутка : 500 мс.
-
[torrents24.ru].t80879.torrent 
Торрент: Зарегистрирован [ 2019-04-14 15:15 ] · B1B2E19B3BE7580E0F7349C653B0624BF19ECC65

Скачать .torrent

Скачать

15 KB

Статус: проверено
Скачан: 0 раз
Размер: 1,46 GB
terms.php
[Профиль] [ЛС]
Показать сообщения:    
Ответить на тему

Текущее время: 23-Апр 03:50

Часовой пояс: UTC + 3



Вы не можете начинать темы
Вы не можете отвечать на сообщения
Вы не можете редактировать свои сообщения
Вы не можете удалять свои сообщения
Вы не можете голосовать в опросах
Вы не можете прикреплять файлы к сообщениям
Вы можете скачивать файлы

Интересное в сети