Частные сыщики / Private Eyes / Сезон: 1 / Серии: 1-10 из 10 (Келли Макин, Роберт Либерман, Энн Вилер) [2016, Канада, Драма, криминал, комедия, HDRip] MVO (Sony) + Original

Ответить на тему
Статистика раздачи
Размер:  5,4 GB   |    Зарегистрирован:  8 дней   |    Скачан:  0 раз

Полного источника не было: Никогда

 
   
 
 
Автор Сообщение

Domino ®

Пол: Не указан

Стаж: 1 год 2 месяца

Сообщений: 176

Создавать темы 14-Апр-2019 15:12

[Цитировать]

Частные сыщики / Private Eyes
Год выпуска: 2016
Страна: Канада
Жанр: Драма, криминал, комедия
Продолжительность: 00:44:00
Перевод: Профессиональный (многоголосый закадровый) Sony
Режиссёр: Келли Макин, Роберт Либерман, Энн Вилер
В ролях: Джейсон Пристли (Мэтт Шейд), Синди Сэмпсон (Энджи Эверетт), Джордин Негри (Джулс Шейд), Бэрри Флэтмэн (Дон Шейд), Эннис Эсмер (Детектив Кёртис Мазари), Кле Беннетт (Детектив Дерек Нолан), Мими Кузык (Нора Эверетт), Николь де Бур (Бекка Д’Орси), Джонни Грэй (Лиам Бенсон) и др.
Описание: Бывший звёздный хоккеист Мэтт Шейд, по прозвищу Тень, давно оставил карьеру из-за травмы и теперь работает тренером. Однако когда у его протеже случается сердечный приступ прямо во время игры, Мэтт решает сам докопаться, что же стало причиной. В ходе своего импровизированного расследования он знакомится с частным детективом Энджи Эверетт, нанятой для того же дела. Волей обстоятельств они объединяют усилия, вместе раскрывая это дело, и Мэтт внезапно осознаёт, что его тянет к профессии сыщика. Он уговаривает Энджи взять его на работу и начинает новую жизнь. Абсолютно разные, Мэтт и Энджи отлично дополняют друг друга, благодаря чему успешно работают и завоёвывают репутацию лучших детективов в округе. Каждая серия - это отдельное расследование, в ходе которого главные герои будут показывать своё детективное мастерство, попутно пытаясь решать и свои личные проблемы...
Сэмпл: http://multi-up.com/1229373
Качество: HDRip
Формат: AVI
Видео: MPEG4, DivX 5, 720x400 (16:9), 23.976 fps, 1 433 Kbps (0.208 bit/pixel)
Аудио: AC-3, 48.0 KHz, 2 ch, 192 Kbps, CBR - русский
Аудио 2: AC-3, 48.0 KHz, 2 ch, 192 Kbps, CBR - английский
Субтитры: нет
Реклама:
нет

MediaInfo

Общее
Полное имя : F:\1x01 - Кодекс (The Code).avi
Формат : AVI
Формат/Информация : Audio Video Interleave
Размер файла : 552 Мбайт
Продолжительность : 42 м. 9 с.
Общий поток : 1831 Кбит/сек
Название фильма : Частные сыщики. Сезон 1 / Private Eyes. Season 1 (2016)
Программа кодирования : VirtualDubMod 1.5.10.2 (build 2540/release)
Библиотека кодирования : VirtualDubMod build 2540/release
Авторское право : miha2154
Видео
Идентификатор : 0
Формат : MPEG-4 Visual
Профиль формата : Advanced Simple@L5
Настройки формата : BVOP1 / Custom Matrix
Параметр BVOP формата : 1
Параметр QPel формата : Нет
Параметр GMC формата : Без точки перехода
Параметр матрицы формата : Выборочная
Идентификатор кодека : DX50
Идентификатор кодека/Подсказка : DivX 5
Продолжительность : 42 м. 9 с.
Битрейт : 1433 Кбит/сек
Ширина : 720 пикселей
Высота : 400 пикселей
Соотношение сторон : 16:9
Частота кадров : 23,976 (24000/1001) кадра/сек
Цветовое пространство : YUV
Субдискретизация насыщенности : 4:2:0
Битовая глубина : 8 бит
Тип развёртки : Прогрессивная
Метод сжатия : С потерями
Бит/(Пиксели*Кадры) : 0.208
Размер потока : 432 Мбайт (78%)
Библиотека кодирования : XviD 65
Аудио #1
Идентификатор : 1
Формат : AC-3
Формат/Информация : Audio Coding 3
Коммерческое название : Dolby Digital
Идентификатор кодека : 2000
Продолжительность : 42 м. 9 с.
Вид битрейта : Постоянный
Битрейт : 192 Кбит/сек
Каналы : 2 канала
Channel layout : L R
Частота : 48,0 КГц
Частота кадров : 31,250 кадров/сек (1536 SPF)
Битовая глубина : 16 бит
Метод сжатия : С потерями
Размер потока : 57,9 Мбайт (10%)
Выравнивание : Разделение по промежуткам
Продолжительность промежутка : 42 мс. (1,00 видеокадр)
Время предзагрузки промежутка : 500 мс.
Заголовок : Профессиональный (многоголосый, закадровый) Sony
ServiceKind/String : Complete Main
Аудио #2
Идентификатор : 2
Формат : AC-3
Формат/Информация : Audio Coding 3
Коммерческое название : Dolby Digital
Идентификатор кодека : 2000
Продолжительность : 42 м. 9 с.
Вид битрейта : Постоянный
Битрейт : 192 Кбит/сек
Каналы : 2 канала
Channel layout : L R
Частота : 48,0 КГц
Частота кадров : 31,250 кадров/сек (1536 SPF)
Битовая глубина : 16 бит
Метод сжатия : С потерями
Размер потока : 57,9 Мбайт (10%)
Выравнивание : Разделение по промежуткам
Продолжительность промежутка : 42 мс. (1,00 видеокадр)
Время предзагрузки промежутка : 500 мс.
Заголовок : Английский
ServiceKind/String : Complete Main

Скриншоты


Предыдущие и альтернативные раздачи
[torrents24.ru].t80875.torrent 
Торрент: Зарегистрирован [ 2019-04-14 15:15 ] · 83953ACF4FE95A21D00FA1A738C6BF0489E21151

Скачать .torrent

Скачать

28 KB

Статус: проверено
Скачан: 0 раз
Размер: 5,4 GB
terms.php
[Профиль] [ЛС]
Показать сообщения:    
Ответить на тему

Текущее время: 23-Апр 03:05

Часовой пояс: UTC + 3



Вы не можете начинать темы
Вы не можете отвечать на сообщения
Вы не можете редактировать свои сообщения
Вы не можете удалять свои сообщения
Вы не можете голосовать в опросах
Вы не можете прикреплять файлы к сообщениям
Вы можете скачивать файлы

Интересное в сети