(Pop) [CD] Анжелика - Над Облаками - 2003, FLAC (image+.cue), lossless

Ответить на тему
Статистика раздачи
Размер:  387 MB   |    Зарегистрирован:  3 месяца 8 дней   |    Скачан:  0 раз

Полного источника не было: Никогда

 
   
 
 
Автор Сообщение

Usagi ®

Пол: Не указан

Стаж: 1 год 5 месяцев

Сообщений: 212

Создавать темы 14-Апр-2019 15:13

[Цитировать]

Анжелика «Над Облаками»
Жанр: Pop
Носитель: CD
Страна-Производитель Диска (Релиза): Russia
Год Издания: 2003
Издатель (лейбл): ООО «Промо Мьюзик»
Номер По Каталогу: CD ZO 19-03
Страна Исполнителя (Группы): Russia
Аудиокодек: FLAC (*.flac)
Тип Рипа: image+.cue
Продолжительность: 00:51:34
Источник: Собственный Рип
Наличие Сканов В Содержимом Раздачи: Да
Треклист:

01. Над Облаками
02. Я Люблю
03. Запрещу Тишину
04. Дождь
05. Ты Обнулил Любовь
06. Боль
07. Море Любви
08. Замок Из Песка
09. Боль (RMX)
10. Сны
11. Вечеринка
12. Такие Дела

Лог Создания Рипа

Exact Audio Copy V1.3 from 2. September 2016
Отчёт EAC об извлечении, выполненном 13. апреля 2019, 15:15
Анжелика / Над Облаками
Дисковод: PIONEER DVD-RW DVR-220L Adapter: 1 ID: 1
Режим чтения : Достоверность
Использование точного потока : Да
Отключение кэша аудио : Да
Использование указателей C2 : Нет
Коррекция смещения при чтении : 6
Способность читать области Lead-in и Lead-out : Нет
Заполнение пропущенных сэмплов тишиной : Да
Удаление блоков с тишиной в начале и конце : Нет
При вычислениях CRC использовались нулевые сэмплы : Да
Интерфейс : Встроенный Win32-интерфейс для Win NT/2000
Выходной формат : Пользовательский кодировщик
Выбранный битрейт : 896 kBit/s
Качество : Высокий
Добавление ID3-тега : Нет
Утилита сжатия : C:\Program Files (x86)\win64\flac.exe
Дополнительные параметры : -V -8 %source%
TOC извлечённого CD
Трек | Старт | Длительность | Начальный сектор | Конечный сектор
---------------------------------------------------------------------
1 | 0:00.00 | 4:41.46 | 0 | 21120
2 | 4:41.46 | 4:28.50 | 21121 | 41270
3 | 9:10.21 | 4:02.01 | 41271 | 59421
4 | 13:12.22 | 3:37.02 | 59422 | 75698
5 | 16:49.24 | 4:04.58 | 75699 | 94056
6 | 20:54.07 | 4:52.64 | 94057 | 116020
7 | 25:46.71 | 4:34.67 | 116021 | 136637
8 | 30:21.63 | 4:05.18 | 136638 | 155030
9 | 34:27.06 | 5:27.42 | 155031 | 179597
10 | 39:54.48 | 3:48.53 | 179598 | 196750
11 | 43:43.26 | 4:13.07 | 196751 | 215732
12 | 47:56.33 | 3:37.35 | 215733 | 232042
Характеристики диапазона извлечения и сообщения об ошибках
Выбранный диапазон
Имя файла C:\Users\BlackBerry BBB100-7\Downloads\Анжелика «Над Облаками» (Промо Мьюзик 2003)\Анжелика - Над Облаками.wav
Пиковый уровень 99.5 %
Скорость извлечения 7.4 X
Качество диапазона 99.9 %
CRC теста 6144F39E
CRC копии 6144F39E
Копирование... OK
Ошибок не произошло
AccurateRip: сводка
Трек 1 отсутствует в базе данных
Трек 2 отсутствует в базе данных
Трек 3 отсутствует в базе данных
Трек 4 отсутствует в базе данных
Трек 5 отсутствует в базе данных
Трек 6 отсутствует в базе данных
Трек 7 отсутствует в базе данных
Трек 8 отсутствует в базе данных
Трек 9 отсутствует в базе данных
Трек 10 отсутствует в базе данных
Трек 11 отсутствует в базе данных
Трек 12 отсутствует в базе данных
Ни одного трека нет в базе AccurateRip
Конец отчёта
==== Контрольная сумма отчёта 05BA9EC217A373D25070E4F30EF01120A9CCA1FD469372485AD9624E98E058CF ====

Содержание Индексной Карты (.CUE)

REM DISCID AD0C150C
REM COMMENT "ExactAudioCopy v1.3"
PERFORMER "Анжелика"
TITLE "Над Облаками"
REM COMPOSER ""
FILE "Анжелика - Над Облаками.flac" WAVE
TRACK 01 AUDIO
TITLE "Над Облаками"
PERFORMER "Анжелика"
REM COMPOSER ""
FLAGS DCP
INDEX 01 00:00:00
TRACK 02 AUDIO
TITLE "Я Люблю"
PERFORMER "Анжелика"
REM COMPOSER ""
FLAGS DCP
INDEX 01 04:41:46
TRACK 03 AUDIO
TITLE "Запрещу Тишину"
PERFORMER "Анжелика"
REM COMPOSER ""
FLAGS DCP
INDEX 01 09:10:21
TRACK 04 AUDIO
TITLE "Дождь"
PERFORMER "Анжелика"
REM COMPOSER ""
FLAGS DCP
INDEX 01 13:12:22
TRACK 05 AUDIO
TITLE "Ты Обнулил Любовь"
PERFORMER "Анжелика"
REM COMPOSER ""
FLAGS DCP
INDEX 01 16:49:24
TRACK 06 AUDIO
TITLE "Боль"
PERFORMER "Анжелика"
REM COMPOSER ""
FLAGS DCP
INDEX 01 20:54:07
TRACK 07 AUDIO
TITLE "Море Любви"
PERFORMER "Анжелика"
REM COMPOSER ""
FLAGS DCP
INDEX 01 25:46:71
TRACK 08 AUDIO
TITLE "Замок Из Песка"
PERFORMER "Анжелика"
REM COMPOSER ""
FLAGS DCP
INDEX 01 30:21:63
TRACK 09 AUDIO
TITLE "Боль (RMX)"
PERFORMER "Анжелика"
REM COMPOSER ""
FLAGS DCP
INDEX 01 34:27:06
TRACK 10 AUDIO
TITLE "Сны"
PERFORMER "Анжелика"
REM COMPOSER ""
FLAGS DCP
INDEX 01 39:54:48
TRACK 11 AUDIO
TITLE "Вечеринка"
PERFORMER "Анжелика"
REM COMPOSER ""
FLAGS DCP
INDEX 01 43:43:26
TRACK 12 AUDIO
TITLE "Такие Дела"
PERFORMER "Анжелика"
REM COMPOSER ""
FLAGS DCP
INDEX 01 47:56:33

Скриншот Спектра Частот


[torrents24.ru].t80847.torrent 
Торрент: Зарегистрирован [ 2019-04-14 15:15 ] · AEE90612EED2ABCF2625738E1F8EE6C48F66A440

Скачать .torrent

Скачать

16 KB

Статус: проверено
Скачан: 0 раз
Размер: 387 MB
terms.php
[Профиль] [ЛС]
Показать сообщения:    
Ответить на тему

Текущее время: 23-Июл 06:15

Часовой пояс: UTC + 3



Вы не можете начинать темы
Вы не можете отвечать на сообщения
Вы не можете редактировать свои сообщения
Вы не можете удалять свои сообщения
Вы не можете голосовать в опросах
Вы не можете прикреплять файлы к сообщениям
Вы можете скачивать файлы

Интересное в сети