Супермен / Superman: The Animated Series / Сезон: 1-3 / Серии: 1-54 из 54 (Дэн Риба / Dan Riba, Курт Геда / Curt Geda) [1996-2000, США, Мультсериал, приключения, фантастика, DVDRip-AVC] Dub + MVO + Original + Sub (Eng)

Ответить на тему
Статистика раздачи
Размер:  15,18 GB   |    Зарегистрирован:  8 дней   |    Скачан:  0 раз
Сидов:  2  [  0 KB/s  ]   Личеров:  1  [  0 KB/s  ]  
 
   
 
 
Автор Сообщение

Angel ®

Пол: Не указан

Стаж: 1 год 2 месяца

Сообщений: 61

Создавать темы 14-Апр-2019 15:13

[Цитировать]

Супермен / Superman: The Animated Series
Страна: США
Жанр: Мультсериал, приключения, фантастика
Продолжительность серии: 00:21:00
Год выпуска: 1996-2000
Перевод 1: Профессиональный (дублированный)
Перевод 2: Любительский (многоголосый закадровый) Alternative Production на серии s02e05, s02e07, s02e09
Русские субтитры: нет
Режиссёр: Дэн Риба / Dan Riba, Курт Геда / Curt Geda
Роли озвучивали: Тимоти Дейли, Дэна Дилэйни, Клэнси Браун, Малкольм Макдауэлл, Кристофер МакДональд, Финола Хьюз, Майк Фаррелл, Шелли Фабарес, Тони Джей
Описание: Супермен - это борец с негодяями. Он - представитель инопланетной цивилизации. Его планета - Криптон (Krypton) - взорвалась, но ребёнка успели поместить в ракету и отправить в космос. В итоге он оказался на Земле. Ни одно оружие ему не страшно. Убить его может только Криптонит, радиоактивное вещество с его планеты, смертельное для Супермена.
Доп. информация: во втором сезоне в сериях 5, 7, 9 перевод любительский от Alternative Production. дубляжа на те серии нет
Семпл: http://multi-up.com/1226699
Качество: DVDRip-AVC
Формат: MKV
Видео: AVC, 640x480, 23.976 fps, ~1548 Kbps
Аудио: Russian, 48 kHz, AC3 Dolby Digital, 2/0 (L,R) ch, 192.00 kbps avg
Аудио 2: English, 48 kHz, AC3 Dolby Digital, 2/0 (L,R) ch, 192.00 kbps avg
Субтитры: английские (srt)

Список серий

Сезон 1
01 - The Last Son Of Krypton - Part 1
02 - The Last Son Of Krypton - Part 2
03 - The Last Son Of Krypton - Part 3
04 - Fun And Games
05 - A Little Piece Of Home
06 - Feeding Time
07 - The Way Of All Flesh
08 - Stolen Memories
09 - The Main Man - Part 1
10 - The Main Man - Part 2
11 - My Girl
12 - Tools Of The Trade
13 - Two's A Crowd
Сезон 2
14 - Blasts from the Past (1)
15 - Blasts from the Past (2)
16 - The Prometheon
17 - Speed Demons
18 - Livewire
19 - Identity Crisis
20 - Target
21 - Mxyzpixilated
22 - Action Figures
23 - Double Dose
24 - Solar Power
25 - Brave New Metropolis
26 - Monkey Fun
27 - Ghost in the Machine
28 - Father's Day
29 - World's Finest (1)
30 - World's Finest (2)
31 - World's Finest (3)
32 - The Hand of Fate
33 - Bizarro's World
34 - Prototype
35 - The Late Mr. Kent
36 - Heavy Metal
37 - Warrior Queen
38 - Apokolips...Now! (1)
39 - Apokolips...Now! (2)
40 - Little Girl Lost (1)
41 - Little Girl Lost (2)
Сезон 3
42 - Where There's Smoke
43 - Knight Time
44 - New Kids in Town
45 - Obsession
46 - Little Big Head
47 - Absolute Power
48 - In Brightest Day
49 - Superman's Pal
50 - Fish Story
51 - Unity
52 - The Demon Reborn
53 - Legacy.Part 1
54 - Legacy. Part 2

Подробные технические данные

General
UniqueID : 178125248372072507655550069878443648246 (0x8601ACCAC6B321EDBF695D737202A4F6)
Complete name : D:\Superman animated series (1996)\Season 1\Superman.The.Animated.Series.S01E01.The.Last.Son.of.Krypton.Part.1.mkv
Format : Matroska
File size : 292 MiB
Duration : 21mn 5s
Overall bit rate : 1 934 Kbps
Encoded date : UTC 2019-03-16 14:57:26
Writing application : mkvmerge v8.2.0 ('World of Adventure') 32bit
Writing library : libebml v1.3.1 + libmatroska v1.4.2
Video
ID : 1
Format : AVC
Format/Info : Advanced Video Codec
Format profile : High@L4.1
Format settings, CABAC : Yes
Format settings, ReFrames : 16 frames
Codec ID : V_MPEG4/ISO/AVC
Duration : 21mn 5s
Bit rate : 1 548 Kbps
Width : 640 pixels
Height : 480 pixels
Display aspect ratio : 4:3
Frame rate : 23.976 fps
Color space : YUV
Chroma subsampling : 4:2:0
Bit depth : 8 bits
Scan type : Progressive
Bits/(Pixel*Frame) : 0.210
Stream size : 228 MiB (78%)
Writing library : x264 core 148 r2638 7599210
Encoding settings : cabac=1 / ref=16 / deblock=1:1:1 / analyse=0x3:0x133 / me=umh / subme=10 / psy=1 / psy_rd=0.40:0.00 / mixed_ref=1 / me_range=24 / chroma_me=1 / trellis=2 / 8x8dct=1 / cqm=0 / deadzone=21,11 / fast_pskip=1 / chroma_qp_offset=-2 / threads=12 / lookahead_threads=3 / sliced_threads=0 / nr=0 / decimate=1 / interlaced=0 / bluray_compat=0 / constrained_intra=0 / bframes=10 / b_pyramid=2 / b_adapt=2 / b_bias=0 / direct=3 / weightb=1 / open_gop=0 / weightp=2 / keyint=240 / keyint_min=23 / scenecut=40 / intra_refresh=0 / rc_lookahead=60 / rc=2pass / mbtree=1 / bitrate=1548 / ratetol=1.0 / qcomp=0.60 / qpmin=0 / qpmax=69 / qpstep=4 / cplxblur=20.0 / qblur=0.5 / vbv_maxrate=62500 / vbv_bufsize=78125 / nal_hrd=none / filler=0 / ip_ratio=1.40 / aq=1:0.60
Audio #1
ID : 2
Format : AC-3
Format/Info : Audio Coding 3
Format profile : Dolby Digital
Mode extension : CM (complete main)
Codec ID : A_AC3
Duration : 21mn 5s
Bit rate mode : Constant
Bit rate : 192 Kbps
Channel(s) : 2 channels
Channel positions : Front: L R
Sampling rate : 48.0 KHz
Bit depth : 16 bits
Compression mode : Lossy
Stream size : 29.0 MiB (10%)
Language : Russian
Audio #2
ID : 3
Format : AC-3
Format/Info : Audio Coding 3
Mode extension : CM (complete main)
Codec ID : A_AC3
Duration : 21mn 5s
Bit rate mode : Constant
Bit rate : 192 Kbps
Channel(s) : 2 channels
Channel positions : Front: L R
Sampling rate : 48.0 KHz
Bit depth : 16 bits
Compression mode : Lossy
Stream size : 29.0 MiB (10%)
Language : English
Text
ID : 4
Format : UTF-8
Codec ID : S_TEXT/UTF8
Codec ID/Info : UTF-8 Plain Text
Language : English
Предыдущие и альтернативные раздачи
[torrents24.ru].t80816.torrent 
Торрент: Зарегистрирован [ 2019-04-14 15:15 ] · 8F5F4FA6E582C42ABDC3A5B25331182DF362CDC7

Скачать .torrent

Скачать

82 KB

Статус: проверено
Скачан: 0 раз
Размер: 15,18 GB
terms.php
[Профиль] [ЛС]
Показать сообщения:    
Ответить на тему

Текущее время: 23-Апр 03:29

Часовой пояс: UTC + 3



Вы не можете начинать темы
Вы не можете отвечать на сообщения
Вы не можете редактировать свои сообщения
Вы не можете удалять свои сообщения
Вы не можете голосовать в опросах
Вы не можете прикреплять файлы к сообщениям
Вы можете скачивать файлы

Интересное в сети