(Blues-Rock) [CD] Julian Sas - Коллекция (12 Альбомов) - 1996-2019, FLAC (image+.cue), lossless

Ответить на тему
Статистика раздачи
Размер:  5,11 GB   |    Зарегистрирован:  8 дней   |    Скачан:  0 раз

Полного источника не было: Никогда

 
   
 
 
Автор Сообщение

тошик ®

Пол: Не указан

Стаж: 1 год 1 месяц

Сообщений: 47

Создавать темы 14-Апр-2019 15:14

[Цитировать]

-
Жанр: Blues-Rock
Носитель: CD
Страна-производитель диска (релиза): EU, USA
Год издания: 1996-2019
Издатель (лейбл): Cavalier Misic, Corazong Records
Страна исполнителя (группы): Holland
Аудиокодек: FLAC (*.flac)
Тип рипа: image+.cue
Битрейт аудио: lossless
Источник (релизер):
Наличие сканов в содержимом раздачи: да
Треклист:
-13 Апреля 2019 года добавлен альбом
2019 - Stand Your Ground
Желающие могут ознакомиться.
-

1996 - Where Will It End!? - 51:25

01. Turpentine Moan (3:07)
02. Honey Babe (4:16)
03. Make Up Your Mind (7:54)
04. Goin' Down (5:04)
05. Tryin' To Do Right (3:04)
06. Travelling Home (3:19)
07. Home Feeling (3:44)
08. Voodoo Love (4:57)
09. I Don't Know (3:44)
10. Stranger Blues (4:56)
11. Serves Me Right To Suffer (7:16)
-

Лог создания рипа

Exact Audio Copy V1.0 beta 3 from 29. August 2011
Отчёт EAC об извлечении, выполненном 30. апреля 2017, 13:30
Julian Sas / Where Will It End!?
Дисковод: PLEXTOR DVDR PX-880SA Adapter: 1 ID: 0
Режим чтения : Достоверность
Использование точного потока : Да
Отключение кэша аудио : Да
Использование указателей C2 : Нет
Коррекция смещения при чтении : 6
Способность читать области Lead-in и Lead-out : Нет
Заполнение пропущенных сэмплов тишиной : Да
Удаление блоков с тишиной в начале и конце : Нет
При вычислениях CRC использовались нулевые сэмплы : Да
Интерфейс : Установленный внешний ASPI-интерфейс
Выходной формат : Пользовательский кодировщик
Выбранный битрейт : 1024 kBit/s
Качество : Высокий
Добавление ID3-тега : Нет
Утилита сжатия : C:\Program Files\Exact Audio Copy\FLAC\FLAC.EXE
Дополнительные параметры : -8 -V -T "ARTIST=%artist%" -T "ALBUM=%albumtitle%" -T "DATE=%year%" -T "GENRE=%genre%" -T "COMMENT=ripped by izia1956" %source%
TOC извлечённого CD
Трек | Старт | Длительность | Начальный сектор | Конечный сектор
---------------------------------------------------------------------
1 | 0:01.00 | 3:07.66 | 75 | 14165
2 | 3:08.66 | 4:16.03 | 14166 | 33368
3 | 7:24.69 | 7:54.54 | 33369 | 68972
4 | 15:19.48 | 5:04.73 | 68973 | 91845
5 | 20:24.46 | 3:04.26 | 91846 | 105671
6 | 23:28.72 | 3:19.09 | 105672 | 120605
7 | 26:48.06 | 3:44.11 | 120606 | 137416
8 | 30:32.17 | 4:57.15 | 137417 | 159706
9 | 35:29.32 | 3:44.06 | 159707 | 176512
10 | 39:13.38 | 4:56.70 | 176513 | 198782
11 | 44:10.33 | 7:16.25 | 198783 | 231507
Характеристики диапазона извлечения и сообщения об ошибках
Выбранный диапазон
Имя файла D:\BitComet\Julian Sas\1996 - Where Will It End!\Julian Sas - Where Will It End!.wav
Пиковый уровень 100.0 %
Скорость извлечения 2.8 X
Качество диапазона 100.0 %
CRC теста D79317D1
CRC копии D79317D1
Копирование... OK
Ошибок не произошло
AccurateRip: сводка
Трек 1 точность не определена (достоверность 5) [4650E135], AccurateRip вернул [01A3C064] (AR v2)
Трек 2 точность не определена (достоверность 5) [CD8FCE1F], AccurateRip вернул [CF13E408] (AR v2)
Трек 3 точность не определена (достоверность 5) [6B79C207], AccurateRip вернул [ED0CE122] (AR v2)
Трек 4 точность не определена (достоверность 5) [25455694], AccurateRip вернул [53395CFB] (AR v2)
Трек 5 точность не определена (достоверность 5) [FC7367C7], AccurateRip вернул [A1F8648A] (AR v2)
Трек 6 точность не определена (достоверность 5) [AF740079], AccurateRip вернул [06CF317F] (AR v2)
Трек 7 точность не определена (достоверность 5) [6803FBA0], AccurateRip вернул [254A7AEC] (AR v2)
Трек 8 точность не определена (достоверность 5) [88A317EF], AccurateRip вернул [D1912D40] (AR v2)
Трек 9 точность не определена (достоверность 5) [3C5E05A3], AccurateRip вернул [BE0C1EDF] (AR v2)
Трек 10 точность не определена (достоверность 5) [BE7214F7], AccurateRip вернул [298DDB0D] (AR v2)
Трек 11 точность не определена (достоверность 5) [A64B88E0], AccurateRip вернул [992B0FA2] (AR v2)
Ни один трек не прошёл проверки на точность
В вашей базе может быть иной вариант штамповки диска
Конец отчёта
==== Контрольная сумма отчёта 5090EBECBCC1E2EACB14ED518C86C5296A80C02651C391D4BA824F5ABE0FE7A9 ====

Содержание индексной карты (.CUE)

REM GENRE Blues-Rock
REM DATE 1996
REM DISCID 750C0D0B
REM COMMENT "ExactAudioCopy v1.0b3"
PERFORMER "Julian Sas"
TITLE "Where Will It End!?"
FILE "Julian Sas - Where Will It End!.flac" WAVE
TRACK 01 AUDIO
TITLE "Turpentine Moan"
PERFORMER "Julian Sas"
FLAGS DCP
INDEX 00 00:00:00
INDEX 01 00:01:00
TRACK 02 AUDIO
TITLE "Honey Babe"
PERFORMER "Julian Sas"
FLAGS DCP
INDEX 00 03:06:21
INDEX 01 03:08:66
TRACK 03 AUDIO
TITLE "Make Up Your Mind"
PERFORMER "Julian Sas"
FLAGS DCP
INDEX 00 07:22:24
INDEX 01 07:24:69
TRACK 04 AUDIO
TITLE "Goin' Down"
PERFORMER "Julian Sas"
FLAGS DCP
INDEX 00 15:17:03
INDEX 01 15:19:48
TRACK 05 AUDIO
TITLE "Tryin' To Do Right"
PERFORMER "Julian Sas"
INDEX 00 20:22:01
INDEX 01 20:24:46
TRACK 06 AUDIO
TITLE "Travelling Home"
PERFORMER "Julian Sas"
INDEX 00 23:26:27
INDEX 01 23:28:72
TRACK 07 AUDIO
TITLE "Home Feeling"
PERFORMER "Julian Sas"
INDEX 00 26:45:36
INDEX 01 26:48:06
TRACK 08 AUDIO
TITLE "Voodoo Love"
PERFORMER "Julian Sas"
FLAGS DCP
INDEX 00 30:29:47
INDEX 01 30:32:17
TRACK 09 AUDIO
TITLE "I Don't Know"
PERFORMER "Julian Sas"
INDEX 00 35:26:62
INDEX 01 35:29:32
TRACK 10 AUDIO
TITLE "Stranger Blues"
PERFORMER "Julian Sas"
FLAGS DCP
INDEX 00 39:10:68
INDEX 01 39:13:38
TRACK 11 AUDIO
TITLE "Serves Me Right To Suffer"
PERFORMER "Julian Sas"
INDEX 00 44:07:63
INDEX 01 44:10:33

1997 - A Smile To My Soul - 54:49

01. Sugarcup Boogie (3:36)
02. Is This What They Call The Blues (5:59)
03. Horror Tone Groove (1:22)
04. Last Man In First Man Out (5:59)
05. My Love Is Tumblin' Down (2:51)
06. Crossroad Call (4:03)
07. I Want Your Love (3:25)
08. Never Gettin' Tired (2:39)
09. Stone Desert (4:30)
10. My Life Is Gonna Be All Mine (4:48)
11. Boot Hill (3:09)
12. Where Will It End?! (7:46)
13. Makin' My Return (4:19)
-

Лог создания рипа

Exact Audio Copy V1.0 beta 3 from 29. August 2011
Отчёт EAC об извлечении, выполненном 30. апреля 2017, 17:01
Julian Sas / A Smile To My Soul
Дисковод: PLEXTOR DVDR PX-880SA Adapter: 1 ID: 0
Режим чтения : Достоверность
Использование точного потока : Да
Отключение кэша аудио : Да
Использование указателей C2 : Нет
Коррекция смещения при чтении : 6
Способность читать области Lead-in и Lead-out : Нет
Заполнение пропущенных сэмплов тишиной : Да
Удаление блоков с тишиной в начале и конце : Нет
При вычислениях CRC использовались нулевые сэмплы : Да
Интерфейс : Установленный внешний ASPI-интерфейс
Выходной формат : Пользовательский кодировщик
Выбранный битрейт : 1024 kBit/s
Качество : Высокий
Добавление ID3-тега : Нет
Утилита сжатия : C:\Program Files\Exact Audio Copy\FLAC\FLAC.EXE
Дополнительные параметры : -8 -V -T "ARTIST=%artist%" -T "ALBUM=%albumtitle%" -T "DATE=%year%" -T "GENRE=%genre%" -T "COMMENT=ripped by izia1956" %source%
TOC извлечённого CD
Трек | Старт | Длительность | Начальный сектор | Конечный сектор
---------------------------------------------------------------------
1 | 0:00.00 | 3:38.07 | 0 | 16356
2 | 3:38.07 | 6:01.07 | 16357 | 43438
3 | 9:39.14 | 1:24.03 | 43439 | 49741
4 | 11:03.17 | 6:00.49 | 49742 | 76790
5 | 17:03.66 | 2:52.73 | 76791 | 89763
6 | 19:56.64 | 4:04.55 | 89764 | 108118
7 | 24:01.44 | 3:26.69 | 108119 | 123637
8 | 27:28.38 | 2:40.73 | 123638 | 135710
9 | 30:09.36 | 4:32.31 | 135711 | 156141
10 | 34:41.67 | 4:49.51 | 156142 | 177867
11 | 39:31.43 | 3:11.15 | 177868 | 192207
12 | 42:42.58 | 7:47.40 | 192208 | 227272
13 | 50:30.23 | 4:18.54 | 227273 | 246676
Характеристики диапазона извлечения и сообщения об ошибках
Выбранный диапазон
Имя файла D:\BitComet\Julian Sas\1997 - A Smile To My Soul\Julian Sas - A Smile To My Soul.wav
Пиковый уровень 100.0 %
Скорость извлечения 2.9 X
Качество диапазона 100.0 %
CRC теста 358C6BCC
CRC копии 358C6BCC
Копирование... OK
Ошибок не произошло
AccurateRip: сводка
Трек 1 точность не определена (достоверность 4) [619552F3], AccurateRip вернул [CB5FA74C] (AR v2)
Трек 2 точность не определена (достоверность 2) [9D257AF8], AccurateRip вернул [93FB407C] (AR v2)
Трек 3 точность не определена (достоверность 3) [ED39320A], AccurateRip вернул [98AFAC95] (AR v2)
Трек 4 точность не определена (достоверность 3) [33EB1779], AccurateRip вернул [5E3D5BC3] (AR v2)
Трек 5 точность не определена (достоверность 3) [FCB6DBE6], AccurateRip вернул [2CFB2523] (AR v2)
Трек 6 точность не определена (достоверность 3) [71986E7B], AccurateRip вернул [535619C1] (AR v2)
Трек 7 точность не определена (достоверность 2) [FA4196CA], AccurateRip вернул [CFC63992] (AR v2)
Трек 8 точность не определена (достоверность 2) [14DCF5B2], AccurateRip вернул [E8A14001] (AR v2)
Трек 9 точность не определена (достоверность 3) [69A2347F], AccurateRip вернул [DDFE50F7] (AR v2)
Трек 10 точность не определена (достоверность 2) [4C38E302], AccurateRip вернул [C16EEEA5] (AR v2)
Трек 11 точность не определена (достоверность 3) [B0D4A426], AccurateRip вернул [90498401] (AR v2)
Трек 12 точность не определена (достоверность 2) [281997AD], AccurateRip вернул [6DC4F5E6] (AR v2)
Трек 13 точность не определена (достоверность 2) [0D3DCAAE], AccurateRip вернул [BB7D86F3] (AR v2)
Ни один трек не прошёл проверки на точность
В вашей базе может быть иной вариант штамповки диска
Конец отчёта
==== Контрольная сумма отчёта 635344EF0793F28210BF3B3299D9CA69CA6C42D3E35D93F8968E716C8E52291A ====

Содержание индексной карты (.CUE)

REM GENRE Blues-Rock
REM DATE 1997
REM DISCID 980CD90D
REM COMMENT "ExactAudioCopy v1.0b3"
PERFORMER "Julian Sas"
TITLE "A Smile To My Soul"
FILE "Julian Sas - A Smile To My Soul.flac" WAVE
TRACK 01 AUDIO
TITLE "Sugarcup Boogie"
PERFORMER "Julian Sas"
INDEX 01 00:00:00
TRACK 02 AUDIO
TITLE "Is This What They Call The Blue"
PERFORMER "Julian Sas"
INDEX 00 03:36:07
INDEX 01 03:38:07
TRACK 03 AUDIO
TITLE "Horror Tone Groove"
PERFORMER "Julian Sas"
INDEX 00 09:37:14
INDEX 01 09:39:14
TRACK 04 AUDIO
TITLE "Last Man In First Man Out"
PERFORMER "Julian Sas"
INDEX 00 11:01:17
INDEX 01 11:03:17
TRACK 05 AUDIO
TITLE "My Love Is Tumblin' Down"
PERFORMER "Julian Sas"
INDEX 00 17:01:66
INDEX 01 17:03:66
TRACK 06 AUDIO
TITLE "Crossroad Call"
PERFORMER "Julian Sas"
INDEX 00 19:54:64
INDEX 01 19:56:64
TRACK 07 AUDIO
TITLE "I Want Your Love"
PERFORMER "Julian Sas"
INDEX 00 23:59:44
INDEX 01 24:01:44
TRACK 08 AUDIO
TITLE "Never Gettin' Tired"
PERFORMER "Julian Sas"
INDEX 00 27:26:38
INDEX 01 27:28:38
TRACK 09 AUDIO
TITLE "Stone Desert"
PERFORMER "Julian Sas"
INDEX 00 30:07:36
INDEX 01 30:09:36
TRACK 10 AUDIO
TITLE "My Life Is Gonna Be All Mine"
PERFORMER "Julian Sas"
INDEX 00 34:39:67
INDEX 01 34:41:67
TRACK 11 AUDIO
TITLE "Boot Hill"
PERFORMER "Julian Sas"
INDEX 00 39:29:43
INDEX 01 39:31:43
TRACK 12 AUDIO
TITLE "Where Will It End?!"
PERFORMER "Julian Sas"
INDEX 00 42:40:58
INDEX 01 42:42:58
TRACK 13 AUDIO
TITLE "Makin' My Return"
PERFORMER "Julian Sas"
INDEX 00 50:28:23
INDEX 01 50:30:23

1998 - Live - 53:46

1. Sugar Cup Boogie (4:14)
2. Maudie (4:18)
3. Last Man In, First Man Out (8:03)
4. Turpentine Moan (3:00)
5. County Jail Blues (7:19)
6. Makin' My Return (Back Up Where I've Been) (17:43)
7. Home Feelin' (5:26)
8. Shake Your Money maker (3:43)
-

Лог создания рипа

Exact Audio Copy V1.0 beta 3 from 29. August 2011
Отчёт EAC об извлечении, выполненном 30. апреля 2017, 21:12
Julian Sas Band / Live
Дисковод: PLEXTOR DVDR PX-880SA Adapter: 1 ID: 0
Режим чтения : Достоверность
Использование точного потока : Да
Отключение кэша аудио : Да
Использование указателей C2 : Нет
Коррекция смещения при чтении : 6
Способность читать области Lead-in и Lead-out : Нет
Заполнение пропущенных сэмплов тишиной : Да
Удаление блоков с тишиной в начале и конце : Нет
При вычислениях CRC использовались нулевые сэмплы : Да
Интерфейс : Установленный внешний ASPI-интерфейс
Выходной формат : Пользовательский кодировщик
Выбранный битрейт : 1024 kBit/s
Качество : Высокий
Добавление ID3-тега : Нет
Утилита сжатия : C:\Program Files\Exact Audio Copy\FLAC\FLAC.EXE
Дополнительные параметры : -8 -V -T "ARTIST=%artist%" -T "ALBUM=%albumtitle%" -T "DATE=%year%" -T "GENRE=%genre%" -T "COMMENT=ripped by izia1956" %source%
TOC извлечённого CD
Трек | Старт | Длительность | Начальный сектор | Конечный сектор
---------------------------------------------------------------------
1 | 0:00.00 | 4:13.68 | 0 | 19042
2 | 4:13.68 | 4:18.37 | 19043 | 38429
3 | 8:32.30 | 8:02.72 | 38430 | 74651
4 | 16:35.27 | 3:00.32 | 74652 | 88183
5 | 19:35.59 | 7:19.18 | 88184 | 121126
6 | 26:55.02 | 17:42.54 | 121127 | 200830
7 | 44:37.56 | 5:25.43 | 200831 | 225248
8 | 50:03.24 | 3:43.26 | 225249 | 241999
Характеристики диапазона извлечения и сообщения об ошибках
Выбранный диапазон
Имя файла D:\BitComet\Julian Sas\1998 - Live\Julian Sas Band - Live.wav
Пиковый уровень 100.0 %
Скорость извлечения 2.9 X
Качество диапазона 100.0 %
CRC теста E877408D
CRC копии E877408D
Копирование... OK
Ошибок не произошло
AccurateRip: сводка
Трек 1 отсутствует в базе данных
Трек 2 отсутствует в базе данных
Трек 3 отсутствует в базе данных
Трек 4 отсутствует в базе данных
Трек 5 отсутствует в базе данных
Трек 6 отсутствует в базе данных
Трек 7 отсутствует в базе данных
Трек 8 отсутствует в базе данных
Ни одного трека нет в базе AccurateRip
Конец отчёта
==== Контрольная сумма отчёта E247CA73121C055AA110B5985132E4E50C1409AE588237342BD3E268F3D0B728 ====

Содержание индексной карты (.CUE)

REM GENRE Blues-Rock
REM DATE 1998
REM DISCID 700C9A08
REM COMMENT "ExactAudioCopy v1.0b3"
PERFORMER "Julian Sas Band"
TITLE "Live"
FILE "Julian Sas Band - Live.flac" WAVE
TRACK 01 AUDIO
TITLE "Sugar Cup Boogie"
PERFORMER "Julian Sas Band"
INDEX 01 00:00:00
TRACK 02 AUDIO
TITLE "Maudie"
PERFORMER "Julian Sas Band"
INDEX 01 04:13:68
TRACK 03 AUDIO
TITLE "Last Man In, First Man Out"
PERFORMER "Julian Sas Band"
INDEX 01 08:32:30
TRACK 04 AUDIO
TITLE "Turpentine Moan"
PERFORMER "Julian Sas Band"
INDEX 01 16:35:27
TRACK 05 AUDIO
TITLE "County Jail Blues"
PERFORMER "Julian Sas Band"
INDEX 01 19:35:59
TRACK 06 AUDIO
TITLE "Makin' My Return (back Up From Where I've Been)"
PERFORMER "Julian Sas Band"
INDEX 01 26:55:02
TRACK 07 AUDIO
TITLE "Home Feelin'"
PERFORMER "Julian Sas Band"
INDEX 01 44:37:56
TRACK 08 AUDIO
TITLE "Shake Your Money Maker"
PERFORMER "Julian Sas Band"
INDEX 01 50:03:24

2000 - For The Lost and Found - 60:08

01. This Time, My Time (3:31)
02. I Ain't Afraid (3:59)
03. Working Man's Blues (4:58)
04. High and Low (5:08)
05. Direction Blues (4:26)
06. Make My Water (3:45)
07. Spellbound Woman (3:04)
08. Blues for J (8:55)
09. Don't Tell Me No Lies (3:44)
10. Life's Devil Ride (3:05)
11. Driftin' Boogie (5:26)
12. Blues for the Lost and Found (6:55)
13. Restless Heart (3:06)
-

Лог создания рипа

Exact Audio Copy V1.0 beta 3 from 29. August 2011
Отчёт EAC об извлечении, выполненном 30. апреля 2017, 19:38
Julian Sas / For The Lost and Found
Дисковод: PLEXTOR DVDR PX-880SA Adapter: 1 ID: 0
Режим чтения : Достоверность
Использование точного потока : Да
Отключение кэша аудио : Да
Использование указателей C2 : Нет
Коррекция смещения при чтении : 6
Способность читать области Lead-in и Lead-out : Нет
Заполнение пропущенных сэмплов тишиной : Да
Удаление блоков с тишиной в начале и конце : Нет
При вычислениях CRC использовались нулевые сэмплы : Да
Интерфейс : Установленный внешний ASPI-интерфейс
Выходной формат : Пользовательский кодировщик
Выбранный битрейт : 1024 kBit/s
Качество : Высокий
Добавление ID3-тега : Нет
Утилита сжатия : C:\Program Files\Exact Audio Copy\FLAC\FLAC.EXE
Дополнительные параметры : -8 -V -T "ARTIST=%artist%" -T "ALBUM=%albumtitle%" -T "DATE=%year%" -T "GENRE=%genre%" -T "COMMENT=ripped by izia1956" %source%
TOC извлечённого CD
Трек | Старт | Длительность | Начальный сектор | Конечный сектор
---------------------------------------------------------------------
1 | 0:00.00 | 3:31.15 | 0 | 15839
2 | 3:31.15 | 3:59.35 | 15840 | 33799
3 | 7:30.50 | 4:58.37 | 33800 | 56186
4 | 12:29.12 | 5:08.30 | 56187 | 79316
5 | 17:37.42 | 4:26.23 | 79317 | 99289
6 | 22:03.65 | 3:45.50 | 99290 | 116214
7 | 25:49.40 | 3:04.17 | 116215 | 130031
8 | 28:53.57 | 8:55.65 | 130032 | 170221
9 | 37:49.47 | 3:44.50 | 170222 | 187071
10 | 41:34.22 | 3:05.60 | 187072 | 201006
11 | 44:40.07 | 5:26.43 | 201007 | 225499
12 | 50:06.50 | 6:55.62 | 225500 | 256686
13 | 57:02.37 | 3:06.33 | 256687 | 270669
Характеристики диапазона извлечения и сообщения об ошибках
Выбранный диапазон
Имя файла D:\BitComet\Julian Sas\2000 - For The Lost and Found\Julian Sas - For The Lost and Found.wav
Пиковый уровень 100.0 %
Скорость извлечения 2.7 X
Качество диапазона 100.0 %
CRC теста 338C047B
CRC копии 338C047B
Копирование... OK
Ошибок не произошло
AccurateRip: сводка
Трек 1 точность не определена (достоверность 5) [B14E7064], AccurateRip вернул [CD0B946B] (AR v2)
Трек 2 точность не определена (достоверность 6) [9CBE8955], AccurateRip вернул [7D3D5276] (AR v2)
Трек 3 точность не определена (достоверность 5) [2B102A64], AccurateRip вернул [0247A4B2] (AR v2)
Трек 4 точность не определена (достоверность 6) [C42E4236], AccurateRip вернул [BCD2115D] (AR v2)
Трек 5 точность не определена (достоверность 6) [66E8B693], AccurateRip вернул [4143543F] (AR v2)
Трек 6 точность не определена (достоверность 6) [18027A46], AccurateRip вернул [3CD9DBC1] (AR v2)
Трек 7 точность не определена (достоверность 7) [5B55D09B], AccurateRip вернул [380DF7AD] (AR v2)
Трек 8 точность не определена (достоверность 6) [145F7958], AccurateRip вернул [A1863646] (AR v2)
Трек 9 точность не определена (достоверность 6) [96806B1F], AccurateRip вернул [8C60F4F5] (AR v2)
Трек 10 точность не определена (достоверность 6) [A03EE8C3], AccurateRip вернул [2D3B83D6] (AR v2)
Трек 11 точность не определена (достоверность 7) [E2EDE3EC], AccurateRip вернул [37A36AF0] (AR v2)
Трек 12 точность не определена (достоверность 6) [AC396897], AccurateRip вернул [7B5500AA] (AR v2)
Трек 13 точность не определена (достоверность 6) [0956E330], AccurateRip вернул [D5E15D7B] (AR v2)
Ни один трек не прошёл проверки на точность
В вашей базе может быть иной вариант штамповки диска
Конец отчёта
==== Контрольная сумма отчёта 4A0923FB30E965F94F31DE2C20BA0CB82EB1A8226675F01BB8E501E9FE19D03D ====

Содержание индексной карты (.CUE)

REM GENRE Blues-Rock
REM DATE 2000
REM DISCID A10E180D
REM COMMENT "ExactAudioCopy v1.0b3"
PERFORMER "Julian Sas"
TITLE "For The Lost and Found"
FILE "Julian Sas - For The Lost and Found.flac" WAVE
TRACK 01 AUDIO
TITLE "This Time, My Time"
PERFORMER "Julian Sas"
INDEX 01 00:00:00
TRACK 02 AUDIO
TITLE "I Ain't Afraid"
PERFORMER "Julian Sas"
INDEX 00 03:29:45
INDEX 01 03:31:15
TRACK 03 AUDIO
TITLE "Working Man's Blues"
PERFORMER "Julian Sas"
INDEX 00 07:29:00
INDEX 01 07:30:50
TRACK 04 AUDIO
TITLE "High and Low"
PERFORMER "Julian Sas"
INDEX 00 12:27:52
INDEX 01 12:29:12
TRACK 05 AUDIO
TITLE "Direction Blues"
PERFORMER "Julian Sas"
INDEX 00 17:36:02
INDEX 01 17:37:42
TRACK 06 AUDIO
TITLE "Make My Water"
PERFORMER "Julian Sas"
INDEX 00 22:02:12
INDEX 01 22:03:65
TRACK 07 AUDIO
TITLE "Spellbound Woman"
PERFORMER "Julian Sas"
INDEX 00 25:47:60
INDEX 01 25:49:40
TRACK 08 AUDIO
TITLE "Blues for J"
PERFORMER "Julian Sas"
INDEX 00 28:52:12
INDEX 01 28:53:57
TRACK 09 AUDIO
TITLE "Don't Tell Me No Lies"
PERFORMER "Julian Sas"
INDEX 00 37:47:72
INDEX 01 37:49:47
TRACK 10 AUDIO
TITLE "Life's Devil Ride"
PERFORMER "Julian Sas"
INDEX 00 41:32:57
INDEX 01 41:34:22
TRACK 11 AUDIO
TITLE "Driftin' Boogie"
PERFORMER "Julian Sas"
INDEX 00 44:38:35
INDEX 01 44:40:07
TRACK 12 AUDIO
TITLE "Blues for the Lost and Found"
PERFORMER "Julian Sas"
INDEX 00 50:05:02
INDEX 01 50:06:50
TRACK 13 AUDIO
TITLE "Restless Heart"
PERFORMER "Julian Sas"
INDEX 00 57:00:65
INDEX 01 57:02:37

2000 - Spirits On The Rise - 50:10

01. Mean Streets (3:19)
02. Morning Rain (5:23)
03. Right Thing (3:22)
04. Hear my Call (3:35)
05. I believe to my Soul (4:51)
06. If I had Wings (3:10)
07. Losing Ground (6:20)
08. Roll on (4:01)
09. Loneliness (3:32)
10. Tale Spreader (3:46)
11. A Light in the Dark (5:24)
12. State of Mind (2:59)
-

Лог создания рипа

Exact Audio Copy V1.0 beta 3 from 29. August 2011
Отчёт EAC об извлечении, выполненном 1. мая 2017, 7:09
Julian Sas / Spirits On The Rise
Дисковод: PLEXTOR DVDR PX-880SA Adapter: 1 ID: 0
Режим чтения : Достоверность
Использование точного потока : Да
Отключение кэша аудио : Да
Использование указателей C2 : Нет
Коррекция смещения при чтении : 6
Способность читать области Lead-in и Lead-out : Нет
Заполнение пропущенных сэмплов тишиной : Да
Удаление блоков с тишиной в начале и конце : Нет
При вычислениях CRC использовались нулевые сэмплы : Да
Интерфейс : Установленный внешний ASPI-интерфейс
Выходной формат : Пользовательский кодировщик
Выбранный битрейт : 1024 kBit/s
Качество : Высокий
Добавление ID3-тега : Нет
Утилита сжатия : C:\Program Files\Exact Audio Copy\FLAC\FLAC.EXE
Дополнительные параметры : -8 -V -T "ARTIST=%artist%" -T "ALBUM=%albumtitle%" -T "DATE=%year%" -T "GENRE=%genre%" -T "COMMENT=ripped by izia1956" %source%
TOC извлечённого CD
Трек | Старт | Длительность | Начальный сектор | Конечный сектор
---------------------------------------------------------------------
1 | 0:00.00 | 3:21.50 | 0 | 15124
2 | 3:21.50 | 5:25.57 | 15125 | 39556
3 | 8:47.32 | 3:24.32 | 39557 | 54888
4 | 12:11.64 | 3:37.61 | 54889 | 71224
5 | 15:49.50 | 4:53.67 | 71225 | 93266
6 | 20:43.42 | 3:12.12 | 93267 | 107678
7 | 23:55.54 | 6:22.71 | 107679 | 136399
8 | 30:18.50 | 4:03.30 | 136400 | 154654
9 | 34:22.05 | 3:34.47 | 154655 | 170751
10 | 37:56.52 | 3:48.20 | 170752 | 187871
11 | 41:44.72 | 5:26.40 | 187872 | 212361
12 | 47:11.37 | 2:59.23 | 212362 | 225809
Характеристики диапазона извлечения и сообщения об ошибках
Выбранный диапазон
Имя файла D:\BitComet\Julian Sas\2000 - Spirits On The Rise\Julian Sas - Spirits On The Rise.wav
Пиковый уровень 98.8 %
Скорость извлечения 2.9 X
Качество диапазона 100.0 %
CRC теста 944B7D62
CRC копии 944B7D62
Копирование... OK
Ошибок не произошло
AccurateRip: сводка
Трек 1 точность не определена (достоверность 4) [D6EC8193], AccurateRip вернул [FAD3092C] (AR v2)
Трек 2 точность не определена (достоверность 4) [D7E6A1F6], AccurateRip вернул [26535138] (AR v2)
Трек 3 точность не определена (достоверность 4) [F46F1619], AccurateRip вернул [433EEA66] (AR v2)
Трек 4 точность не определена (достоверность 4) [3C6C9F63], AccurateRip вернул [48C25924] (AR v2)
Трек 5 точность не определена (достоверность 4) [2826B046], AccurateRip вернул [D186C1B3] (AR v2)
Трек 6 точность не определена (достоверность 4) [69B94985], AccurateRip вернул [780E3C05] (AR v2)
Трек 7 точность не определена (достоверность 4) [123C9C73], AccurateRip вернул [E534D872] (AR v2)
Трек 8 точность не определена (достоверность 4) [8AD1C964], AccurateRip вернул [84D54382] (AR v2)
Трек 9 точность не определена (достоверность 4) [EA9F8BAF], AccurateRip вернул [772FD306] (AR v2)
Трек 10 точность не определена (достоверность 4) [23137570], AccurateRip вернул [CF257109] (AR v2)
Трек 11 точность не определена (достоверность 4) [B1CE0BE9], AccurateRip вернул [F40A7AEE] (AR v2)
Трек 12 точность не определена (достоверность 4) [85648429], AccurateRip вернул [569E9649] (AR v2)
Ни один трек не прошёл проверки на точность
В вашей базе может быть иной вариант штамповки диска
Конец отчёта
==== Контрольная сумма отчёта 913C92A98F4F00521F42BBD84FF89E5978CE75E618384626F0146DA0F577CAA6 ====

Содержание индексной карты (.CUE)

REM GENRE Blues-Rock
REM DATE 2000
REM DISCID 950BC20C
REM COMMENT "ExactAudioCopy v1.0b3"
PERFORMER "Julian Sas"
TITLE "Spirits On The Rise"
FILE "Julian Sas - Spirits On The Rise.flac" WAVE
TRACK 01 AUDIO
TITLE "Mean Streets"
PERFORMER "Julian Sas"
INDEX 01 00:00:00
TRACK 02 AUDIO
TITLE "Morning Rain"
PERFORMER "Julian Sas"
INDEX 00 03:19:52
INDEX 01 03:21:50
TRACK 03 AUDIO
TITLE "Right Thing"
PERFORMER "Julian Sas"
INDEX 00 08:45:35
INDEX 01 08:47:32
TRACK 04 AUDIO
TITLE "Hear My Call"
PERFORMER "Julian Sas"
INDEX 00 12:09:67
INDEX 01 12:11:64
TRACK 05 AUDIO
TITLE "I Believe To My Soul"
PERFORMER "Julian Sas"
INDEX 00 15:47:52
INDEX 01 15:49:50
TRACK 06 AUDIO
TITLE "If I Had Wings"
PERFORMER "Julian Sas"
INDEX 00 20:41:45
INDEX 01 20:43:42
TRACK 07 AUDIO
TITLE "Losing Ground"
PERFORMER "Julian Sas"
INDEX 00 23:53:57
INDEX 01 23:55:54
TRACK 08 AUDIO
TITLE "Roll On"
PERFORMER "Julian Sas"
INDEX 00 30:16:52
INDEX 01 30:18:50
TRACK 09 AUDIO
TITLE "Loneliness"
PERFORMER "Julian Sas"
INDEX 00 34:20:07
INDEX 01 34:22:05
TRACK 10 AUDIO
TITLE "Tale Spreader"
PERFORMER "Julian Sas"
INDEX 00 37:54:55
INDEX 01 37:56:52
TRACK 11 AUDIO
TITLE "A Light In The Dark"
PERFORMER "Julian Sas"
INDEX 00 41:43:00
INDEX 01 41:44:72
TRACK 12 AUDIO
TITLE "State Of Mind"
PERFORMER "Julian Sas"
INDEX 00 47:09:40
INDEX 01 47:11:37

2003 - Light in the Dark - 70:29

01. A Light in the Dark (3:33)
02. County Jail Blues (7:21)
03. Losing Ground (6:22)
04. Serves Me Right to Suffer (7:18)
05. Blues for J (8:55)
06. Is This What They Call the Blues (6:01)
07. Where Will It End?! (7:47)
08. Make Up Your Mind (7:54)
09. Ragin' River (8:20)
10. Blues for the Lost and Found (6:54)
-

Лог создания рипа

Exact Audio Copy V1.0 beta 3 from 29. August 2011
Отчёт EAC об извлечении, выполненном 3. мая 2017, 17:47
Julian Sas / Light in the Dark
Дисковод: PLEXTOR DVDR PX-880SA Adapter: 1 ID: 0
Режим чтения : Достоверность
Использование точного потока : Да
Отключение кэша аудио : Да
Использование указателей C2 : Нет
Коррекция смещения при чтении : 6
Способность читать области Lead-in и Lead-out : Нет
Заполнение пропущенных сэмплов тишиной : Да
Удаление блоков с тишиной в начале и конце : Нет
При вычислениях CRC использовались нулевые сэмплы : Да
Интерфейс : Установленный внешний ASPI-интерфейс
Выходной формат : Пользовательский кодировщик
Выбранный битрейт : 1024 kBit/s
Качество : Высокий
Добавление ID3-тега : Нет
Утилита сжатия : C:\Program Files\Exact Audio Copy\FLAC\FLAC.EXE
Дополнительные параметры : -8 -V -T "ARTIST=%artist%" -T "ALBUM=%albumtitle%" -T "DATE=%year%" -T "GENRE=%genre%" -T "COMMENT=ripped by izia1956" %source%
TOC извлечённого CD
Трек | Старт | Длительность | Начальный сектор | Конечный сектор
---------------------------------------------------------------------
1 | 0:00.00 | 3:33.10 | 0 | 15984
2 | 3:33.10 | 7:21.35 | 15985 | 49094
3 | 10:54.45 | 6:22.55 | 49095 | 77799
4 | 17:17.25 | 7:18.32 | 77800 | 110681
5 | 24:35.57 | 8:55.65 | 110682 | 150871
6 | 33:31.47 | 6:01.25 | 150872 | 177971
7 | 39:32.72 | 7:47.33 | 177972 | 213029
8 | 47:20.30 | 7:54.15 | 213030 | 248594
9 | 55:14.45 | 8:20.30 | 248595 | 286124
10 | 63:35.00 | 6:54.15 | 286125 | 317189
Характеристики диапазона извлечения и сообщения об ошибках
Выбранный диапазон
Имя файла D:\BitComet\Julian Sas\2003 - Light in the Dark\Julian Sas - Light in the Dark.wav
Пиковый уровень 100.0 %
Скорость извлечения 2.9 X
Качество диапазона 100.0 %
CRC теста 58247AFF
CRC копии 58247AFF
Копирование... OK
Ошибок не произошло
AccurateRip: сводка
Трек 1 точность не определена (достоверность 5) [A4917B7D], AccurateRip вернул [E4AB7F43] (AR v2)
Трек 2 точность не определена (достоверность 5) [542AB0FA], AccurateRip вернул [2EFA657C] (AR v2)
Трек 3 точность не определена (достоверность 5) [D443DDB0], AccurateRip вернул [0793B63E] (AR v2)
Трек 4 точность не определена (достоверность 5) [33644399], AccurateRip вернул [53DD2682] (AR v2)
Трек 5 точность не определена (достоверность 5) [E33B4D1F], AccurateRip вернул [424273D5] (AR v2)
Трек 6 точность не определена (достоверность 5) [88808ECB], AccurateRip вернул [8DAC179A] (AR v2)
Трек 7 точность не определена (достоверность 4) [B059A40F], AccurateRip вернул [0808140C] (AR v2)
Трек 8 точность не определена (достоверность 5) [9A472CEE], AccurateRip вернул [3092F81C] (AR v2)
Трек 9 точность не определена (достоверность 5) [CB8C011E], AccurateRip вернул [0CC73157] (AR v2)
Трек 10 точность не определена (достоверность 5) [125EB215], AccurateRip вернул [F6F94C5C] (AR v2)
Ни один трек не прошёл проверки на точность
В вашей базе может быть иной вариант штамповки диска
Конец отчёта
==== Контрольная сумма отчёта B3D2D1CA8BFE37019F5707BABF1AB80FE05804EBC251073EEADBC378E51C0BC3 ====

Содержание индексной карты (.CUE)

REM GENRE Blues-Rock
REM DATE 2003
REM DISCID 8110850A
REM COMMENT "ExactAudioCopy v1.0b3"
PERFORMER "Julian Sas"
TITLE "Light in the Dark"
FILE "Julian Sas - Light in the Dark.flac" WAVE
TRACK 01 AUDIO
TITLE "Light in the Dark"
PERFORMER "Julian Sas"
INDEX 01 00:00:00
TRACK 02 AUDIO
TITLE "County Jail Blues"
PERFORMER "Julian Sas"
INDEX 00 03:31:17
INDEX 01 03:33:10
TRACK 03 AUDIO
TITLE "Losing Ground"
PERFORMER "Julian Sas"
INDEX 00 10:52:60
INDEX 01 10:54:45
TRACK 04 AUDIO
TITLE "Serves Me Right to Suffer"
PERFORMER "Julian Sas"
INDEX 00 17:15:37
INDEX 01 17:17:25
TRACK 05 AUDIO
TITLE "Blues for J"
PERFORMER "Julian Sas"
INDEX 00 24:33:62
INDEX 01 24:35:57
TRACK 06 AUDIO
TITLE "Is This What They Call the Blues"
PERFORMER "Julian Sas"
INDEX 00 33:30:00
INDEX 01 33:31:47
TRACK 07 AUDIO
TITLE "Where Will It End?!"
PERFORMER "Julian Sas"
INDEX 00 39:31:02
INDEX 01 39:32:72
TRACK 08 AUDIO
TITLE "Make Up Your Mind"
PERFORMER "Julian Sas"
INDEX 00 47:18:67
INDEX 01 47:20:30
TRACK 09 AUDIO
TITLE "Ragin' River"
PERFORMER "Julian Sas"
INDEX 00 55:12:37
INDEX 01 55:14:45
TRACK 10 AUDIO
TITLE "Blues for the Lost and Found"
PERFORMER "Julian Sas"
INDEX 01 63:35:00

2005 - Twilight Skies Of Life - 58:37

01. Helping Hand (4:42)
02. Freedom Bound (3:13)
03. I'm Still Crying (8:39)
04. The One to Blame (4:39)
05. That's Enough for Me (6:49)
06. Lost Again (4:29)
07. Lookin' for a Friend (7:05)
08. It Ain't Easy (5:55)
09. Devil Got My Number (3:57)
10. Think About It (5:07)
11. That's Enough for Me (Radio Version) (4:02)
-

Лог создания рипа

Exact Audio Copy V1.0 beta 3 from 29. August 2011
Отчёт EAC об извлечении, выполненном 3. мая 2017, 18:37
Julian Sas / Twilight Skies Of Life
Дисковод: PLEXTOR DVDR PX-880SA Adapter: 1 ID: 0
Режим чтения : Достоверность
Использование точного потока : Да
Отключение кэша аудио : Да
Использование указателей C2 : Нет
Коррекция смещения при чтении : 6
Способность читать области Lead-in и Lead-out : Нет
Заполнение пропущенных сэмплов тишиной : Да
Удаление блоков с тишиной в начале и конце : Нет
При вычислениях CRC использовались нулевые сэмплы : Да
Интерфейс : Установленный внешний ASPI-интерфейс
Выходной формат : Пользовательский кодировщик
Выбранный битрейт : 1024 kBit/s
Качество : Высокий
Добавление ID3-тега : Нет
Утилита сжатия : C:\Program Files\Exact Audio Copy\FLAC\FLAC.EXE
Дополнительные параметры : -8 -V -T "ARTIST=%artist%" -T "ALBUM=%albumtitle%" -T "DATE=%year%" -T "GENRE=%genre%" -T "COMMENT=ripped by izia1956" %source%
TOC извлечённого CD
Трек | Старт | Длительность | Начальный сектор | Конечный сектор
---------------------------------------------------------------------
1 | 0:00.00 | 4:41.62 | 0 | 21136
2 | 4:41.62 | 3:12.58 | 21137 | 35594
3 | 7:54.45 | 8:39.35 | 35595 | 74554
4 | 16:34.05 | 4:38.45 | 74555 | 95449
5 | 21:12.50 | 6:48.65 | 95450 | 126114
6 | 28:01.40 | 4:29.35 | 126115 | 146324
7 | 32:31.00 | 7:05.17 | 146325 | 178216
8 | 39:36.17 | 5:55.28 | 178217 | 204869
9 | 45:31.45 | 3:57.15 | 204870 | 222659
10 | 49:28.60 | 5:06.47 | 222660 | 245656
11 | 54:35.32 | 4:02.33 | 245657 | 263839
Характеристики диапазона извлечения и сообщения об ошибках
Выбранный диапазон
Имя файла D:\BitComet\Julian Sas\2005 - Twilight Skies Of Life\Julian Sas - Twilight Skies Of Life.wav
Пиковый уровень 100.0 %
Скорость извлечения 2.8 X
Качество диапазона 99.9 %
CRC теста EBFBAD8F
CRC копии EBFBAD8F
Копирование... OK
Ошибок не произошло
AccurateRip: сводка
Трек 1 : извлечено точно (доверие 6) [4E3B9EC0] (AR v2)
Трек 2 : извлечено точно (доверие 6) [47F93A39] (AR v2)
Трек 3 : извлечено точно (доверие 6) [60508BD9] (AR v2)
Трек 4 : извлечено точно (доверие 6) [585E7060] (AR v2)
Трек 5 : извлечено точно (доверие 6) [1D1EC86E] (AR v2)
Трек 6 : извлечено точно (доверие 6) [BEB84D62] (AR v2)
Трек 7 : извлечено точно (доверие 6) [DB8E9CE8] (AR v2)
Трек 8 : извлечено точно (доверие 6) [7C2FFFE5] (AR v2)
Трек 9 : извлечено точно (доверие 6) [575D35BA] (AR v2)
Трек 10 : извлечено точно (доверие 6) [62D8C25E] (AR v2)
Трек 11 : извлечено точно (доверие 6) [627BEBC6] (AR v2)
Все треки извлечены точно
Конец отчёта
==== Контрольная сумма отчёта 47FD48D2D78C51083AD855C3FC148B3E1E1701BD57EA9BBD6242D14142ED9F71 ====

Содержание индексной карты (.CUE)

REM GENRE Blues-Rock
REM DATE 2005
REM DISCID B20DBD0B
REM COMMENT "ExactAudioCopy v1.0b3"
PERFORMER "Julian Sas"
TITLE "Twilight Skies Of Life"
FILE "Julian Sas - Twilight Skies Of Life.flac" WAVE
TRACK 01 AUDIO
TITLE "Helping Hand"
PERFORMER "Julian Sas"
INDEX 01 00:00:00
TRACK 02 AUDIO
TITLE "Freedom Bound"
PERFORMER "Julian Sas"
INDEX 00 04:40:40
INDEX 01 04:41:62
TRACK 03 AUDIO
TITLE "I'm Still Crying"
PERFORMER "Julian Sas"
INDEX 00 07:53:67
INDEX 01 07:54:45
TRACK 04 AUDIO
TITLE "The One to Blame"
PERFORMER "Julian Sas"
INDEX 00 16:31:62
INDEX 01 16:34:05
TRACK 05 AUDIO
TITLE "That's Enough For Me"
PERFORMER "Julian Sas"
INDEX 00 21:09:54
INDEX 01 21:12:50
TRACK 06 AUDIO
TITLE "Lost Again"
PERFORMER "Julian Sas"
INDEX 01 28:01:40
TRACK 07 AUDIO
TITLE "Lookin' For A Friend"
PERFORMER "Julian Sas"
INDEX 00 32:28:07
INDEX 01 32:31:00
TRACK 08 AUDIO
TITLE "It Ain't Easy"
PERFORMER "Julian Sas"
INDEX 00 39:35:62
INDEX 01 39:36:17
TRACK 09 AUDIO
TITLE "Devil Got My Number"
PERFORMER "Julian Sas"
INDEX 01 45:31:45
TRACK 10 AUDIO
TITLE "Think About It"
PERFORMER "Julian Sas"
INDEX 01 49:28:60
TRACK 11 AUDIO
TITLE "That's Enough For Me (Radio Version)"
PERFORMER "Julian Sas"
INDEX 00 54:30:22
INDEX 01 54:35:32

2009 - Wandering Between Worlds

CD 1 - 56:14

01. Resurrection (6:31)
02. Funky News (7:29)
03. Ainґt no change (10:01)
04. Sailinґinto the unknown (9:02)
05. Tupentine moan (5:43)
06. BurninґSoul (6:13)
07. The way it goes (5:06)
08. Canґt settle down (6:05)
-

Лог создания рипа

Exact Audio Copy V1.0 beta 3 from 29. August 2011
Отчёт EAC об извлечении, выполненном 4. мая 2017, 19:54
Julian Sas / Wandering Between Worlds (CD1)
Дисковод: PLEXTOR DVDR PX-880SA Adapter: 1 ID: 0
Режим чтения : Достоверность
Использование точного потока : Да
Отключение кэша аудио : Да
Использование указателей C2 : Нет
Коррекция смещения при чтении : 6
Способность читать области Lead-in и Lead-out : Нет
Заполнение пропущенных сэмплов тишиной : Да
Удаление блоков с тишиной в начале и конце : Нет
При вычислениях CRC использовались нулевые сэмплы : Да
Интерфейс : Установленный внешний ASPI-интерфейс
Выходной формат : Пользовательский кодировщик
Выбранный битрейт : 1024 kBit/s
Качество : Высокий
Добавление ID3-тега : Нет
Утилита сжатия : C:\Program Files\Exact Audio Copy\FLAC\FLAC.EXE
Дополнительные параметры : -8 -V -T "ARTIST=%artist%" -T "ALBUM=%albumtitle%" -T "DATE=%year%" -T "GENRE=%genre%" -T "COMMENT=ripped by izia1956" %source%
TOC извлечённого CD
Трек | Старт | Длительность | Начальный сектор | Конечный сектор
---------------------------------------------------------------------
1 | 0:00.00 | 6:31.11 | 0 | 29335
2 | 6:31.11 | 7:29.09 | 29336 | 63019
3 | 14:00.20 | 10:01.33 | 63020 | 108127
4 | 24:01.53 | 9:02.61 | 108128 | 148838
5 | 33:04.39 | 5:43.69 | 148839 | 174632
6 | 38:48.33 | 6:13.23 | 174633 | 202630
7 | 45:01.56 | 5:06.67 | 202631 | 225647
8 | 50:08.48 | 6:05.49 | 225648 | 253071
Характеристики диапазона извлечения и сообщения об ошибках
Выбранный диапазон
Имя файла D:\BitComet\Julian Sas\2009 - Wandering Between Worlds\CD 1\Julian Sas - Wandering Between Worlds (CD1).wav
Пиковый уровень 100.0 %
Скорость извлечения 3.0 X
Качество диапазона 100.0 %
CRC теста D2FD74DC
CRC копии D2FD74DC
Копирование... OK
Ошибок не произошло
AccurateRip: сводка
Трек 1 точность не определена (достоверность 5) [1D990D46], AccurateRip вернул [700866BE] (AR v2)
Трек 2 точность не определена (достоверность 5) [157E2FA0], AccurateRip вернул [1F93EEDB] (AR v2)
Трек 3 точность не определена (достоверность 5) [AB1C9357], AccurateRip вернул [73BC664A] (AR v2)
Трек 4 точность не определена (достоверность 5) [C2D61336], AccurateRip вернул [506E96DB] (AR v2)
Трек 5 точность не определена (достоверность 5) [0E0BEF07], AccurateRip вернул [AB7A3575] (AR v2)
Трек 6 точность не определена (достоверность 5) [67020805], AccurateRip вернул [32A757DF] (AR v2)
Трек 7 точность не определена (достоверность 5) [3320DA5A], AccurateRip вернул [87C7F212] (AR v2)
Трек 8 точность не определена (достоверность 5) [321E4B49], AccurateRip вернул [F74E76C5] (AR v2)
Ни один трек не прошёл проверки на точность
В вашей базе может быть иной вариант штамповки диска
Конец отчёта
==== Контрольная сумма отчёта A44C5F36E9DF2A427FAD70B794A7CA11FCF60C23851E62569A4E5A2964AEC440 ====

Содержание индексной карты (.CUE)

REM GENRE Blues-Rock
REM DATE 2009
REM DISCID 5B0D2E08
REM COMMENT "ExactAudioCopy v1.0b3"
PERFORMER "Julian Sas"
TITLE "Wandering Between Worlds (CD1)"
FILE "Julian Sas - Wandering Between Worlds (CD1).flac" WAVE
TRACK 01 AUDIO
TITLE "Resurrection"
PERFORMER "Julian Sas"
INDEX 01 00:00:00
TRACK 02 AUDIO
TITLE "Funky News"
PERFORMER "Julian Sas"
INDEX 01 06:31:11
TRACK 03 AUDIO
TITLE "Ain't No Change"
PERFORMER "Julian Sas"
INDEX 01 14:00:20
TRACK 04 AUDIO
TITLE "Sailin' Into The Unknown"
PERFORMER "Julian Sas"
INDEX 01 24:01:53
TRACK 05 AUDIO
TITLE "Turpentine Moan"
PERFORMER "Julian Sas"
INDEX 01 33:04:39
TRACK 06 AUDIO
TITLE "Burnin' Soul"
PERFORMER "Julian Sas"
INDEX 00 38:48:08
INDEX 01 38:48:33
TRACK 07 AUDIO
TITLE "The Way It Goes"
PERFORMER "Julian Sas"
INDEX 00 45:01:05
INDEX 01 45:01:56
TRACK 08 AUDIO
TITLE "Can't Settle Down"
PERFORMER "Julian Sas"
INDEX 01 50:08:48

CD 2 - 58:54

01. Sugarcup boogie (14:26)
02. Blues for J (16:21)
03. I take what I want (11:09)
04. The devil got my number (6:02)
05. This time my time (3:38)
06. Boogie all around (7:16)
-

Лог создания рипа

Exact Audio Copy V1.0 beta 3 from 29. August 2011
Отчёт EAC об извлечении, выполненном 4. мая 2017, 21:20
Julian Sas / Wandering Between Worlds (CD2)
Дисковод: PLEXTOR DVDR PX-880SA Adapter: 1 ID: 0
Режим чтения : Достоверность
Использование точного потока : Да
Отключение кэша аудио : Да
Использование указателей C2 : Нет
Коррекция смещения при чтении : 6
Способность читать области Lead-in и Lead-out : Нет
Заполнение пропущенных сэмплов тишиной : Да
Удаление блоков с тишиной в начале и конце : Нет
При вычислениях CRC использовались нулевые сэмплы : Да
Интерфейс : Установленный внешний ASPI-интерфейс
Выходной формат : Пользовательский кодировщик
Выбранный битрейт : 1024 kBit/s
Качество : Высокий
Добавление ID3-тега : Нет
Утилита сжатия : C:\Program Files\Exact Audio Copy\FLAC\FLAC.EXE
Дополнительные параметры : -8 -V -T "ARTIST=%artist%" -T "ALBUM=%albumtitle%" -T "DATE=%year%" -T "GENRE=%genre%" -T "COMMENT=ripped by izia1956" %source%
TOC извлечённого CD
Трек | Старт | Длительность | Начальный сектор | Конечный сектор
---------------------------------------------------------------------
1 | 0:00.00 | 14:26.67 | 0 | 65016
2 | 14:26.67 | 16:21.51 | 65017 | 138642
3 | 30:48.43 | 11:09.20 | 138643 | 188837
4 | 41:57.63 | 6:02.04 | 188838 | 215991
5 | 47:59.67 | 3:38.56 | 215992 | 232397
6 | 51:38.48 | 7:16.02 | 232398 | 265099
Характеристики диапазона извлечения и сообщения об ошибках
Выбранный диапазон
Имя файла D:\BitComet\Julian Sas\2009 - Wandering Between Worlds\CD 2\Julian Sas - Wandering Between Worlds (CD2).wav
Пиковый уровень 100.0 %
Скорость извлечения 3.0 X
Качество диапазона 100.0 %
CRC теста BFB9F438
CRC копии BFB9F438
Копирование... OK
Ошибок не произошло
AccurateRip: сводка
Трек 1 точность не определена (достоверность 5) [326FEBA1], AccurateRip вернул [72F77AE6] (AR v2)
Трек 2 точность не определена (достоверность 5) [50F77AA3], AccurateRip вернул [2AAACEEC] (AR v2)
Трек 3 точность не определена (достоверность 5) [61CD874E], AccurateRip вернул [C8353B0E] (AR v2)
Трек 4 точность не определена (достоверность 5) [81B00489], AccurateRip вернул [F03353FE] (AR v2)
Трек 5 точность не определена (достоверность 5) [D007A543], AccurateRip вернул [DE2FD5F8] (AR v2)
Трек 6 точность не определена (достоверность 5) [FED20D2B], AccurateRip вернул [E4015048] (AR v2)
Ни один трек не прошёл проверки на точность
В вашей базе может быть иной вариант штамповки диска
Конец отчёта
==== Контрольная сумма отчёта 55DEB01AB6631F5D095BF03889AF0FF49A8804F3CC3762646FB540C0621365EA ====

Содержание индексной карты (.CUE)

REM GENRE Blues-Rock
REM DATE 2009
REM DISCID 4E0DCE06
REM COMMENT "ExactAudioCopy v1.0b3"
PERFORMER "Julian Sas"
TITLE "Wandering Between Worlds (CD2)"
FILE "Julian Sas - Wandering Between Worlds (CD2).flac" WAVE
TRACK 01 AUDIO
TITLE "Sugarcup Boogie"
PERFORMER "Julian Sas"
INDEX 01 00:00:00
TRACK 02 AUDIO
TITLE "Blues for J"
PERFORMER "Julian Sas"
INDEX 01 14:26:67
TRACK 03 AUDIO
TITLE "I Take What I Want"
PERFORMER "Julian Sas"
INDEX 01 30:48:43
TRACK 04 AUDIO
TITLE "The Devil Got My Number"
PERFORMER "Julian Sas"
INDEX 01 41:57:63
TRACK 05 AUDIO
TITLE "This Time My Time"
PERFORMER "Julian Sas"
INDEX 01 47:59:67
TRACK 06 AUDIO
TITLE "Boogie All Around"
PERFORMER "Julian Sas"
INDEX 01 51:38:48

2012 - Bound To Roll - 53:15

01. Life On The Line (5:01)
02. Mercy (4:00)
03. Bound To Roll (3:59)
04. How Could I've Been So Blind (4:36)
05. Shadow Play (4:40)
06. Swamplands (4:14)
07. 30 Days In The Hole (3:25)
08. The Blues Won't Stay (4:19)
09. Tear It Up (3:08)
10. Burnin' Bridges (5:15)
11. Ain't Backing Down (2:57)
12. Highway 61 Revisted (4:19)
13. Life On The Line (Radio Edit) (3:23)
-

Лог создания рипа

Exact Audio Copy V1.0 beta 3 from 29. August 2011
Отчёт EAC об извлечении, выполненном 30. апреля 2017, 11:50
Julian Sas / Bound To Roll
Дисковод: PLEXTOR DVDR PX-880SA Adapter: 1 ID: 0
Режим чтения : Достоверность
Использование точного потока : Да
Отключение кэша аудио : Да
Использование указателей C2 : Нет
Коррекция смещения при чтении : 6
Способность читать области Lead-in и Lead-out : Нет
Заполнение пропущенных сэмплов тишиной : Да
Удаление блоков с тишиной в начале и конце : Нет
При вычислениях CRC использовались нулевые сэмплы : Да
Интерфейс : Установленный внешний ASPI-интерфейс
Выходной формат : Пользовательский кодировщик
Выбранный битрейт : 1024 kBit/s
Качество : Высокий
Добавление ID3-тега : Нет
Утилита сжатия : C:\Program Files\Exact Audio Copy\FLAC\FLAC.EXE
Дополнительные параметры : -8 -V -T "ARTIST=%artist%" -T "ALBUM=%albumtitle%" -T "DATE=%year%" -T "GENRE=%genre%" -T "COMMENT=ripped by izia1956" %source%
TOC извлечённого CD
Трек | Старт | Длительность | Начальный сектор | Конечный сектор
---------------------------------------------------------------------
1 | 0:00.00 | 5:01.32 | 0 | 22606
2 | 5:01.32 | 4:00.19 | 22607 | 40625
3 | 9:01.51 | 3:59.03 | 40626 | 58553
4 | 13:00.54 | 4:36.25 | 58554 | 79278
5 | 17:37.04 | 4:39.66 | 79279 | 100269
6 | 22:16.70 | 4:13.57 | 100270 | 119301
7 | 26:30.52 | 3:24.71 | 119302 | 134672
8 | 29:55.48 | 4:18.49 | 134673 | 154071
9 | 34:14.22 | 3:07.66 | 154072 | 168162
10 | 37:22.13 | 5:14.43 | 168163 | 191755
11 | 42:36.56 | 2:57.30 | 191756 | 205060
12 | 45:34.11 | 4:18.54 | 205061 | 224464
13 | 49:52.65 | 3:22.53 | 224465 | 239667
Характеристики диапазона извлечения и сообщения об ошибках
Выбранный диапазон
Имя файла D:\BitComet\Julian Sas\2012 - Bound To Roll\Julian Sas - Bound To Roll.wav
Пиковый уровень 100.0 %
Скорость извлечения 2.7 X
Качество диапазона 100.0 %
CRC теста C15A174A
CRC копии C15A174A
Копирование... OK
Ошибок не произошло
AccurateRip: сводка
Трек 1 : извлечено точно (доверие 26) [CECEF7BA] (AR v2)
Трек 2 : извлечено точно (доверие 26) [55751208] (AR v2)
Трек 3 : извлечено точно (доверие 26) [8769F5AC] (AR v2)
Трек 4 : извлечено точно (доверие 26) [2CA51C8D] (AR v2)
Трек 5 : извлечено точно (доверие 26) [79239418] (AR v2)
Трек 6 : извлечено точно (доверие 26) [AF9C4539] (AR v2)
Трек 7 : извлечено точно (доверие 26) [7C427827] (AR v2)
Трек 8 : извлечено точно (доверие 26) [F7D7CA74] (AR v2)
Трек 9 : извлечено точно (доверие 26) [1CC35A29] (AR v2)
Трек 10 : извлечено точно (доверие 26) [3EFA9FDE] (AR v2)
Трек 11 : извлечено точно (доверие 26) [1834BEAF] (AR v2)
Трек 12 : извлечено точно (доверие 26) [1D0B2BD2] (AR v2)
Трек 13 : извлечено точно (доверие 26) [B6CF6A5F] (AR v2)
Все треки извлечены точно
Конец отчёта
==== Контрольная сумма отчёта CF6989A4C4A55AF266046B5DD949ACC3B9A4EBB0686F2A3CE890425BFD369C0D ====

Содержание индексной карты (.CUE)

REM GENRE Blues-Rock
REM DATE 2012
REM DISCID C30C7B0D
REM COMMENT "ExactAudioCopy v1.0b3"
PERFORMER "Julian Sas"
TITLE "Bound To Roll"
FILE "Julian Sas - Bound To Roll.flac" WAVE
TRACK 01 AUDIO
TITLE "Life On The Line"
PERFORMER "Julian Sas"
INDEX 01 00:00:00
TRACK 02 AUDIO
TITLE "Mercy"
PERFORMER "Julian Sas"
INDEX 00 04:58:57
INDEX 01 05:01:32
TRACK 03 AUDIO
TITLE "Bound To Roll"
PERFORMER "Julian Sas"
INDEX 01 09:01:51
TRACK 04 AUDIO
TITLE "How Could I've Been So Blind"
PERFORMER "Julian Sas"
INDEX 00 12:58:04
INDEX 01 13:00:54
TRACK 05 AUDIO
TITLE "Shadow Play"
PERFORMER "Julian Sas"
INDEX 00 17:34:52
INDEX 01 17:37:04
TRACK 06 AUDIO
TITLE "Swamp Lands"
PERFORMER "Julian Sas"
INDEX 01 22:16:70
TRACK 07 AUDIO
TITLE "30 Days In The Hole"
PERFORMER "Julian Sas"
INDEX 01 26:30:52
TRACK 08 AUDIO
TITLE "The Blues Won't Stay"
PERFORMER "Julian Sas"
INDEX 00 29:52:73
INDEX 01 29:55:48
TRACK 09 AUDIO
TITLE "Tear It Up"
PERFORMER "Julian Sas"
INDEX 00 34:11:47
INDEX 01 34:14:22
TRACK 10 AUDIO
TITLE "Burnin' Bridges"
PERFORMER "Julian Sas"
INDEX 00 37:19:38
INDEX 01 37:22:13
TRACK 11 AUDIO
TITLE "Ain't Backing Down"
PERFORMER "Julian Sas"
INDEX 00 42:34:06
INDEX 01 42:36:56
TRACK 12 AUDIO
TITLE "Highway 61"
PERFORMER "Julian Sas"
INDEX 00 45:31:36
INDEX 01 45:34:11
TRACK 13 AUDIO
TITLE "Life On The Line (Radio Edit)"
PERFORMER "Julian Sas"
INDEX 00 49:48:15
INDEX 01 49:52:65

2016 - 1996-2000

2016 - Coming Home - 57:33

01. Jump For Joy (4:55)
02. Did You Ever Wonder (3:46)
03. A Change Is Gonna Come (6:30)
04. The Road Is My Companion (5:13)
05. Fear Of Falling (7:07)
06. Coming Home (4:25)
07. End Of The Line (3:51)
08. Shame On You (6:36)
09. Stop Talking Jive (3:19)
10. Brighter Days (5:36)
11. Walking Home With Angels (6:15)
-

Лог создания рипа

Exact Audio Copy V1.0 beta 3 from 29. August 2011
Отчёт EAC об извлечении, выполненном 30. апреля 2017, 4:05
Julian Sas / Coming Home
Дисковод: PLEXTOR DVDR PX-880SA Adapter: 1 ID: 0
Режим чтения : Достоверность
Использование точного потока : Да
Отключение кэша аудио : Да
Использование указателей C2 : Нет
Коррекция смещения при чтении : 6
Способность читать области Lead-in и Lead-out : Нет
Заполнение пропущенных сэмплов тишиной : Да
Удаление блоков с тишиной в начале и конце : Нет
При вычислениях CRC использовались нулевые сэмплы : Да
Интерфейс : Установленный внешний ASPI-интерфейс
Выходной формат : Пользовательский кодировщик
Выбранный битрейт : 1024 kBit/s
Качество : Высокий
Добавление ID3-тега : Нет
Утилита сжатия : C:\Program Files\Exact Audio Copy\FLAC\FLAC.EXE
Дополнительные параметры : -8 -V -T "ARTIST=%artist%" -T "ALBUM=%albumtitle%" -T "DATE=%year%" -T "GENRE=%genre%" -T "COMMENT=ripped by izia1956" %source%
TOC извлечённого CD
Трек | Старт | Длительность | Начальный сектор | Конечный сектор
---------------------------------------------------------------------
1 | 0:00.00 | 4:54.59 | 0 | 22108
2 | 4:54.59 | 3:46.17 | 22109 | 39075
3 | 8:41.01 | 6:30.37 | 39076 | 68362
4 | 15:11.38 | 5:12.73 | 68363 | 91835
5 | 20:24.36 | 7:06.49 | 91836 | 123834
6 | 27:31.10 | 4:24.52 | 123835 | 143686
7 | 31:55.62 | 3:51.21 | 143687 | 161032
8 | 35:47.08 | 6:35.65 | 161033 | 190722
9 | 42:22.73 | 3:19.18 | 190723 | 205665
10 | 45:42.16 | 5:36.06 | 205666 | 230871
11 | 51:18.22 | 6:15.11 | 230872 | 259007
Характеристики диапазона извлечения и сообщения об ошибках
Выбранный диапазон
Имя файла D:\BitComet\Julian Sas\2016 - Coming Home\Julian Sas - Coming Home.wav
Пиковый уровень 100.0 %
Скорость извлечения 2.7 X
Качество диапазона 99.9 %
CRC теста F59D10B2
CRC копии F59D10B2
Копирование... OK
Ошибок не произошло
AccurateRip: сводка
Трек 1 : извлечено точно (доверие 3) [407E80DB] (AR v2)
Трек 2 : извлечено точно (доверие 3) [981CDCA8] (AR v2)
Трек 3 : извлечено точно (доверие 3) [819893A1] (AR v2)
Трек 4 : извлечено точно (доверие 3) [6EE27574] (AR v2)
Трек 5 : извлечено точно (доверие 3) [3F7D56F7] (AR v2)
Трек 6 : извлечено точно (доверие 3) [2B48013C] (AR v2)
Трек 7 : извлечено точно (доверие 3) [0B28CD2C] (AR v2)
Трек 8 : извлечено точно (доверие 3) [B9525075] (AR v2)
Трек 9 : извлечено точно (доверие 3) [F5AE834D] (AR v2)
Трек 10 : извлечено точно (доверие 3) [1E8C4F26] (AR v2)
Трек 11 : извлечено точно (доверие 3) [7FA21DC3] (AR v2)
Все треки извлечены точно
Конец отчёта
==== Контрольная сумма отчёта 0D38E9195EA7472F69E94C64C0ADA3A5F1B50AB4ACEED07A4ED7AFBBC238768D ====

Содержание индексной карты (.CUE)

REM GENRE Blues-Rock
REM DATE 2016
REM DISCID 910D7D0B
REM COMMENT "ExactAudioCopy v1.0b3"
PERFORMER "Julian Sas"
TITLE "Coming Home"
FILE "Julian Sas - Coming Home.flac" WAVE
TRACK 01 AUDIO
TITLE "Jump For Joy"
PERFORMER "Julian Sas"
INDEX 01 00:00:00
TRACK 02 AUDIO
TITLE "Did You Ever Wonder"
PERFORMER "Julian Sas"
INDEX 00 04:53:40
INDEX 01 04:54:59
TRACK 03 AUDIO
TITLE "A Change Is Gonna Come"
PERFORMER "Julian Sas"
INDEX 01 08:41:01
TRACK 04 AUDIO
TITLE "The Road Is My Companion"
PERFORMER "Julian Sas"
INDEX 00 15:10:01
INDEX 01 15:11:38
TRACK 05 AUDIO
TITLE "Fear Of Falling"
PERFORMER "Julian Sas"
INDEX 00 20:22:30
INDEX 01 20:24:36
TRACK 06 AUDIO
TITLE "Coming Home"
PERFORMER "Julian Sas"
INDEX 00 27:30:06
INDEX 01 27:31:10
TRACK 07 AUDIO
TITLE "End Of The Line"
PERFORMER "Julian Sas"
INDEX 01 31:55:62
TRACK 08 AUDIO
TITLE "Shame On You"
PERFORMER "Julian Sas"
INDEX 00 35:45:59
INDEX 01 35:47:08
TRACK 09 AUDIO
TITLE "Stop Talking Jive"
PERFORMER "Julian Sas"
INDEX 01 42:22:73
TRACK 10 AUDIO
TITLE "Brighter Days"
PERFORMER "Julian Sas"
INDEX 01 45:42:16
TRACK 11 AUDIO
TITLE "Walking Home With Angels"
PERFORMER "Julian Sas"
INDEX 00 51:15:73
INDEX 01 51:18:22

2017 - Feelin' Alive - 51:11

01. Jump For Joy (4:48)
02. High And Low (6:26)
03. Did You Ever Wonder (4:04)
04. Fear Of Falling (8:00)
05. Mercy (5:28)
06. Coming Home (4:31)
07. Helping Hand (8:19)
08. Highway 61 Revisited (4:46)
09. Bullfrog Blues (4:49)
-

Лог создания рипа

Exact Audio Copy V1.0 beta 3 from 29. August 2011
Отчёт EAC об извлечении, выполненном 1. мая 2017, 19:48
Julian Sas / Feelin' Alive
Дисковод: PLEXTOR DVDR PX-880SA Adapter: 1 ID: 0
Режим чтения : Достоверность
Использование точного потока : Да
Отключение кэша аудио : Да
Использование указателей C2 : Нет
Коррекция смещения при чтении : 6
Способность читать области Lead-in и Lead-out : Нет
Заполнение пропущенных сэмплов тишиной : Да
Удаление блоков с тишиной в начале и конце : Нет
При вычислениях CRC использовались нулевые сэмплы : Да
Интерфейс : Установленный внешний ASPI-интерфейс
Выходной формат : Пользовательский кодировщик
Выбранный битрейт : 1024 kBit/s
Качество : Высокий
Добавление ID3-тега : Нет
Утилита сжатия : C:\Program Files\Exact Audio Copy\FLAC\FLAC.EXE
Дополнительные параметры : -8 -V -T "ARTIST=%artist%" -T "ALBUM=%albumtitle%" -T "DATE=%year%" -T "GENRE=%genre%" -T "COMMENT=ripped by izia1956" %source%
TOC извлечённого CD
Трек | Старт | Длительность | Начальный сектор | Конечный сектор
---------------------------------------------------------------------
1 | 0:00.00 | 4:48.12 | 0 | 21611
2 | 4:48.12 | 6:26.11 | 21612 | 50572
3 | 11:14.23 | 4:04.23 | 50573 | 68895
4 | 15:18.46 | 8:00.31 | 68896 | 104926
5 | 23:19.02 | 5:27.40 | 104927 | 129491
6 | 28:46.42 | 4:31.22 | 129492 | 149838
7 | 33:17.64 | 8:18.68 | 149839 | 187256
8 | 41:36.57 | 4:45.57 | 187257 | 208688
9 | 46:22.39 | 4:49.09 | 208689 | 230372
Характеристики диапазона извлечения и сообщения об ошибках
Выбранный диапазон
Имя файла D:\BitComet\Julian Sas\2017 - Feelin' Alive\Julian Sas - Feelin' Alive.wav
Пиковый уровень 100.0 %
Скорость извлечения 2.9 X
Качество диапазона 99.9 %
CRC теста F786628B
CRC копии F786628B
Копирование... OK
Ошибок не произошло
AccurateRip: сводка
Трек 1 отсутствует в базе данных
Трек 2 отсутствует в базе данных
Трек 3 отсутствует в базе данных
Трек 4 отсутствует в базе данных
Трек 5 отсутствует в базе данных
Трек 6 отсутствует в базе данных
Трек 7 отсутствует в базе данных
Трек 8 отсутствует в базе данных
Трек 9 отсутствует в базе данных
Ни одного трека нет в базе AccurateRip
Конец отчёта
==== Контрольная сумма отчёта 962BC37BE5379D298400D0C41F5C27F7F8AE67B4903AF887C2C3B7E9CBD0E477 ====

Содержание индексной карты (.CUE)

REM GENRE Blues-Rock
REM DATE 2017
REM DISCID 8B0BFF09
REM COMMENT "ExactAudioCopy v1.0b3"
PERFORMER "Julian Sas"
TITLE "Feelin' Alive"
FILE "Julian Sas - Feelin' Alive.flac" WAVE
TRACK 01 AUDIO
TITLE "Jump For Joy"
PERFORMER "Julian Sas"
INDEX 01 00:00:00
TRACK 02 AUDIO
TITLE "High and Low"
PERFORMER "Julian Sas"
INDEX 01 04:48:12
TRACK 03 AUDIO
TITLE "Did You Ever Wonder"
PERFORMER "Julian Sas"
INDEX 01 11:14:23
TRACK 04 AUDIO
TITLE "Fear of Falling"
PERFORMER "Julian Sas"
INDEX 01 15:18:46
TRACK 05 AUDIO
TITLE "Mercy"
PERFORMER "Julian Sas"
INDEX 01 23:19:02
TRACK 06 AUDIO
TITLE "Coming Home"
PERFORMER "Julian Sas"
INDEX 01 28:46:42
TRACK 07 AUDIO
TITLE "Helping Hand"
PERFORMER "Julian Sas"
INDEX 01 33:17:64
TRACK 08 AUDIO
TITLE "Highway 61 Revisited"
PERFORMER "Julian Sas"
INDEX 01 41:36:57
TRACK 09 AUDIO
TITLE "Bullfrog Blues"
PERFORMER "Julian Sas"
INDEX 01 46:22:39

2019 - Stand Your Ground - 40:38

01. Runnin' For The Money (4:24)
02. Don't Let Me Down (4:59)
03. Stand Your Ground (3:35)
04. Anything (8:04)
05. Howlin' Wind (5:54)
06. Get On Up (4:34)
07. Tell Me Why (4:50)
08. These 18 Wheels (4:16)
-

Лог создания рипа

Exact Audio Copy V1.3 from 2. September 2016
Отчёт EAC об извлечении, выполненном 13. апреля 2019, 15:10
Julian Sas / Stand Your Ground
Дисковод: HL-DT-STDVD+-RW GH82N Adapter: 1 ID: 0
Режим чтения : Достоверность
Использование точного потока : Да
Отключение кэша аудио : Да
Использование указателей C2 : Нет
Коррекция смещения при чтении : 667
Способность читать области Lead-in и Lead-out : Нет
Заполнение пропущенных сэмплов тишиной : Да
Удаление блоков с тишиной в начале и конце : Нет
При вычислениях CRC использовались нулевые сэмплы : Да
Интерфейс : Встроенный Win32-интерфейс для Win NT/2000
Выходной формат : Пользовательский кодировщик
Выбранный битрейт : 1024 kBit/s
Качество : Высокий
Добавление ID3-тега : Нет
Утилита сжатия : C:\Program Files (x86)\Exact Audio Copy\FLAC\FLAC.EXE
Дополнительные параметры : -8 -V -T "ARTIST=%artist%" -T "ALBUM=%albumtitle%" -T "DATE=%year%" -T "GENRE=%genre%" -T "COMMENT=ripped by izia1956" %source%
TOC извлечённого CD
Трек | Старт | Длительность | Начальный сектор | Конечный сектор
---------------------------------------------------------------------
1 | 0:00.00 | 4:23.72 | 0 | 19796
2 | 4:23.72 | 4:59.33 | 19797 | 42254
3 | 9:23.30 | 3:35.07 | 42255 | 58386
4 | 12:58.37 | 8:04.64 | 58387 | 94750
5 | 21:03.26 | 5:54.63 | 94751 | 121363
6 | 26:58.14 | 4:34.05 | 121364 | 141918
7 | 31:32.19 | 4:50.40 | 141919 | 163708
8 | 36:22.59 | 4:16.06 | 163709 | 182914
Характеристики диапазона извлечения и сообщения об ошибках
Выбранный диапазон
Имя файла E:\BitComet\Julian Sas\Julian Sas - Stand Your Ground.wav
Пиковый уровень 98.3 %
Скорость извлечения 3.0 X
Качество диапазона 99.9 %
CRC теста 0B0536BF
CRC копии 0B0536BF
Копирование... OK
Ошибок не произошло
AccurateRip: сводка
Трек 1 отсутствует в базе данных
Трек 2 отсутствует в базе данных
Трек 3 отсутствует в базе данных
Трек 4 отсутствует в базе данных
Трек 5 отсутствует в базе данных
Трек 6 отсутствует в базе данных
Трек 7 отсутствует в базе данных
Трек 8 отсутствует в базе данных
Ни одного трека нет в базе AccurateRip
Конец отчёта
==== Контрольная сумма отчёта 208E6CE2ADDEAADCC3AACD90EC939B5141A16C65A350CA6FE672B232B50E014E ====

Содержание индексной карты (.CUE)

REM GENRE Blues-Rock
REM DATE 2019
REM DISCID 6A098608
REM COMMENT "ExactAudioCopy v1.3"
PERFORMER "Julian Sas"
TITLE "Stand Your Ground"
REM COMPOSER "Julian Sas"
FILE "Julian Sas - Stand Your Ground.flac" WAVE
TRACK 01 AUDIO
TITLE "Runnin' for the money"
PERFORMER "Julian Sas"
REM COMPOSER "Julian Sas"
INDEX 01 00:00:00
TRACK 02 AUDIO
TITLE "Don't let me down"
PERFORMER "Julian Sas"
REM COMPOSER "Julian Sas"
INDEX 01 04:23:72
TRACK 03 AUDIO
TITLE "Stand Your Ground"
PERFORMER "Julian Sas"
REM COMPOSER "Julian Sas"
INDEX 01 09:23:30
TRACK 04 AUDIO
TITLE "Anything"
PERFORMER "Julian Sas"
REM COMPOSER "Julian Sas"
INDEX 01 12:58:37
TRACK 05 AUDIO
TITLE "Howlin' wind"
PERFORMER "Julian Sas"
REM COMPOSER "Julian Sas"
INDEX 01 21:03:26
TRACK 06 AUDIO
TITLE "Get on up"
PERFORMER "Julian Sas"
REM COMPOSER "Julian Sas"
INDEX 01 26:58:14
TRACK 07 AUDIO
TITLE "Tell me why"
PERFORMER "Julian Sas"
REM COMPOSER "Julian Sas"
INDEX 01 31:32:19
TRACK 08 AUDIO
TITLE "These 18 wheels "
PERFORMER "Julian Sas"
REM COMPOSER "Julian Sas"
INDEX 01 36:22:59
Доп. информация: Рип сделан собственноручно.
Сканы в папке.
Рип от
[torrents24.ru].t80764.torrent 
Торрент: Зарегистрирован [ 2019-04-14 15:15 ] · 1CF33242EB8E17E47E54094EA60F4E2F31754D52

Скачать .torrent

Скачать

40 KB

Статус: проверено
Скачан: 0 раз
Размер: 5,11 GB
terms.php
[Профиль] [ЛС]
Показать сообщения:    
Ответить на тему

Текущее время: 23-Апр 03:14

Часовой пояс: UTC + 3



Вы не можете начинать темы
Вы не можете отвечать на сообщения
Вы не можете редактировать свои сообщения
Вы не можете удалять свои сообщения
Вы не можете голосовать в опросах
Вы не можете прикреплять файлы к сообщениям
Вы можете скачивать файлы

Интересное в сети