Хоботёнок (Екатерина Филиппова) [2017, Россия, мультфильм, WEBRip]

Ответить на тему
Статистика раздачи
Размер:  46 MB   |    Зарегистрирован:  3 месяца 10 дней   |    Скачан:  0 раз

Полного источника не было: Никогда

 
   
 
 
Автор Сообщение

Makar ®

Пол: Не указан

Стаж: 1 год 5 месяцев

Сообщений: 71

Создавать темы 12-Апр-2019 16:59

[Цитировать]

Хоботёнок
Страна: Россия
Жанр: мультфильм
Продолжительность: 00:06:29
Год выпуска: 2017
Режиссёр: Екатерина Филиппова
Описание: Сказка про слонёнка с очень длинным хоботом, который ему очень мешал, а потом очень помог.
Качество: WEBRip
Формат: AVI
Видео: 854 kbps, 720х400 (16:9), 25.000 fps, MPEG-4 Visual (XviD)
Аудио: 128 kbps, 44.1 kHz, 2 channels, MPEG Audio (MP3)
Субтитры: отсутствуют

Подробные технические данные

General
Complete name : Хоботёнок (2017).avi
Format : AVI
Format/Info : Audio Video Interleave
File size : 46.1 MiB
Duration : 6mn 29s
Overall bit rate : 994 Kbps
Writing library : VirtualDub build 35491/release
Video
ID : 0
Format : MPEG-4 Visual
Format profile : Advanced Simple@L5
Format settings, BVOP : 2
Format settings, QPel : No
Format settings, GMC : No warppoints
Format settings, Matrix : Default (H.263)
Codec ID : XVID
Codec ID/Hint : XviD
Duration : 6mn 29s
Bit rate : 854 Kbps
Width : 720 pixels
Height : 400 pixels
Display aspect ratio : 16:9
Frame rate : 25.000 fps
Color space : YUV
Chroma subsampling : 4:2:0
Bit depth : 8 bits
Scan type : Progressive
Compression mode : Lossy
Bits/(Pixel*Frame) : 0.119
Stream size : 39.6 MiB (86%)
Writing library : XviD 73
Audio
ID : 1
Format : MPEG Audio
Format version : Version 1
Format profile : Layer 3
Codec ID : 55
Codec ID/Hint : MP3
Duration : 6mn 29s
Bit rate mode : Constant
Bit rate : 128 Kbps
Channel(s) : 2 channels
Sampling rate : 44.1 KHz
Compression mode : Lossy
Stream size : 5.94 MiB (13%)
Alignment : Aligned on interleaves
Interleave, duration : 26 ms (0.65 video frame)
Interleave, preload duration : 522 ms
Writing library : LAME3.99.5

Скриншоты

[torrents24.ru].t80574.torrent 
Торрент: Зарегистрирован [ 2019-04-12 17:00 ] · A578B7FFFFD224BF19467D4D2045BB58FA2EA690

Скачать .torrent

Скачать

15 KB

Статус: проверено
Скачан: 0 раз
Размер: 46 MB
terms.php
[Профиль] [ЛС]
Показать сообщения:    
Ответить на тему

Текущее время: 23-Июл 05:49

Часовой пояс: UTC + 3



Вы не можете начинать темы
Вы не можете отвечать на сообщения
Вы не можете редактировать свои сообщения
Вы не можете удалять свои сообщения
Вы не можете голосовать в опросах
Вы не можете прикреплять файлы к сообщениям
Вы можете скачивать файлы

Интересное в сети