(Rocksteady) Delroy Wilson - Rocksteady Massive! - 2003, FLAC (tracks+.cue) lossless

Ответить на тему
Статистика раздачи
Размер:  311 MB   |    Зарегистрирован:  2 месяца 5 дней   |    Скачан:  0 раз

Полного источника не было: Никогда

 
   
 
 
Автор Сообщение

craft ®

Пол: Не указан

Стаж: 1 год 4 месяца

Сообщений: 37

Создавать темы 11-Апр-2019 15:54

[Цитировать]

Delroy Wilson / Rocksteady Massive!
Жанр: Rocksteady
Страна-производитель диска: US
Год издания диска: 2003
Издатель (лейбл): Burning Bush Records
Номер по каталогу: 302 061 317 2
Аудиокодек: FLAC
Тип рипа: tracks+.cue
Битрейт аудио: lossless
Продолжительность: 00:55:35
Источник: скачано с
сайт-источник/ник/другое: локальная сеть
Наличие сканов в содержимом раздачи: да
Треклист:
1 Cool Operator
2 I'm In A Dancing Mood
3 Stick By Me
4 Better Must Come
5 It's Impossible
6 Tune In
7 Trying To Conquer Me
8 Riding For A Fall
9 Rain From The Skies
10 Keep On Running
11 Here Comes The Heartaches
12 Just Say Who
13 Put Yourself In My Place
14 I'm In The Mood For Love
15 Let There Be Love
16 It's The Same Old Song
17 Baby You've Got What It Takes
18 Who Cares
19 I Shall Be Relased
20 Hold Me Tight

Лог создания рипа

Exact Audio Copy V0.99 prebeta 5 from 4. May 2009
EAC extraction logfile from 28. December 2010, 11:56
Delroy Wilson / Rocksteady Massive!
Used drive : PIONEER DVD-RW DVR-218L Adapter: 0 ID: 1
Read mode : Secure
Utilize accurate stream : Yes
Defeat audio cache : Yes
Make use of C2 pointers : No
Read offset correction : 6
Overread into Lead-In and Lead-Out : No
Fill up missing offset samples with silence : Yes
Delete leading and trailing silent blocks : No
Null samples used in CRC calculations : Yes
Used interface : Installed external ASPI interface
Gap handling : Appended to previous track
Used output format : User Defined Encoder
Selected bitrate : 128 kBit/s
Quality : High
Add ID3 tag : No
Command line compressor : D:\Software\Audio\flac-1.2.1-win\bin\flac.exe
Additional command line options : -V -8 -T "artist=%a" -T "title=%t" -T "album=%g" -T "date=%y" -T "tracknumber=%n" -T "genre=%m" %s
TOC of the extracted CD
Track | Start | Length | Start sector | End sector
---------------------------------------------------------
1 | 0:00.00 | 1:54.10 | 0 | 8559
2 | 1:54.10 | 2:16.15 | 8560 | 18774
3 | 4:10.25 | 3:12.53 | 18775 | 33227
4 | 7:23.03 | 2:39.09 | 33228 | 45161
5 | 10:02.12 | 3:38.08 | 45162 | 61519
6 | 13:40.20 | 3:17.01 | 61520 | 76295
7 | 16:57.21 | 3:00.59 | 76296 | 89854
8 | 19:58.05 | 2:59.20 | 89855 | 103299
9 | 22:57.25 | 2:25.23 | 103300 | 114197
10 | 25:22.48 | 2:06.28 | 114198 | 123675
11 | 27:29.01 | 3:05.12 | 123676 | 137562
12 | 30:34.13 | 2:23.62 | 137563 | 148349
13 | 32:58.00 | 2:18.70 | 148350 | 158769
14 | 35:16.70 | 2:02.33 | 158770 | 167952
15 | 37:19.28 | 2:22.66 | 167953 | 178668
16 | 39:42.19 | 2:59.55 | 178669 | 192148
17 | 42:41.74 | 3:11.40 | 192149 | 206513
18 | 45:53.39 | 3:02.22 | 206514 | 220185
19 | 48:55.61 | 3:39.70 | 220186 | 236680
20 | 52:35.56 | 3:08.00 | 236681 | 250780
Track 1
Filename D:\Rips\Delroy Wilson - Rocksteady Massive! (2003) [FLAC]\01 - Cool Operator.wav
Pre-gap length 0:00:02.00
Peak level 97.9 %
Track quality 100.0 %
Test CRC F568D4AF
Copy CRC F568D4AF
Track not present in AccurateRip database
Copy OK
Track 2
Filename D:\Rips\Delroy Wilson - Rocksteady Massive! (2003) [FLAC]\02 - I'm In A Dancing Mood.wav
Peak level 87.3 %
Track quality 100.0 %
Test CRC 00212037
Copy CRC 00212037
Track not present in AccurateRip database
Copy OK
Track 3
Filename D:\Rips\Delroy Wilson - Rocksteady Massive! (2003) [FLAC]\03 - Stick By Me.wav
Peak level 97.9 %
Track quality 100.0 %
Test CRC 7C907076
Copy CRC 7C907076
Track not present in AccurateRip database
Copy OK
Track 4
Filename D:\Rips\Delroy Wilson - Rocksteady Massive! (2003) [FLAC]\04 - Better Must Come.wav
Peak level 97.9 %
Track quality 100.0 %
Test CRC 330DE964
Copy CRC 330DE964
Track not present in AccurateRip database
Copy OK
Track 5
Filename D:\Rips\Delroy Wilson - Rocksteady Massive! (2003) [FLAC]\05 - It's Impossible.wav
Peak level 87.3 %
Track quality 100.0 %
Test CRC 92B8751A
Copy CRC 92B8751A
Track not present in AccurateRip database
Copy OK
Track 6
Filename D:\Rips\Delroy Wilson - Rocksteady Massive! (2003) [FLAC]\06 - Tune In.wav
Peak level 98.0 %
Track quality 100.0 %
Test CRC 257881FB
Copy CRC 257881FB
Track not present in AccurateRip database
Copy OK
Track 7
Filename D:\Rips\Delroy Wilson - Rocksteady Massive! (2003) [FLAC]\07 - Trying To Conquer Me.wav
Peak level 97.9 %
Track quality 100.0 %
Test CRC 1D31D505
Copy CRC 1D31D505
Track not present in AccurateRip database
Copy OK
Track 8
Filename D:\Rips\Delroy Wilson - Rocksteady Massive! (2003) [FLAC]\08 - Riding For A Fall.wav
Peak level 98.0 %
Track quality 100.0 %
Test CRC 265BC9CC
Copy CRC 265BC9CC
Track not present in AccurateRip database
Copy OK
Track 9
Filename D:\Rips\Delroy Wilson - Rocksteady Massive! (2003) [FLAC]\09 - Rain From The Skies.wav
Peak level 97.9 %
Track quality 100.0 %
Test CRC DE6FEF72
Copy CRC DE6FEF72
Track not present in AccurateRip database
Copy OK
Track 10
Filename D:\Rips\Delroy Wilson - Rocksteady Massive! (2003) [FLAC]\10 - Keep On Running.wav
Peak level 97.9 %
Track quality 100.0 %
Test CRC 1F62FAC1
Copy CRC 1F62FAC1
Track not present in AccurateRip database
Copy OK
Track 11
Filename D:\Rips\Delroy Wilson - Rocksteady Massive! (2003) [FLAC]\11 - Here Comes The Heartaches.wav
Peak level 98.0 %
Track quality 100.0 %
Test CRC A4353187
Copy CRC A4353187
Track not present in AccurateRip database
Copy OK
Track 12
Filename D:\Rips\Delroy Wilson - Rocksteady Massive! (2003) [FLAC]\12 - Just Say Who.wav
Peak level 98.0 %
Track quality 100.0 %
Test CRC 6D9C3A99
Copy CRC 6D9C3A99
Track not present in AccurateRip database
Copy OK
Track 13
Filename D:\Rips\Delroy Wilson - Rocksteady Massive! (2003) [FLAC]\13 - Put Yourself In My Place.wav
Peak level 97.9 %
Track quality 100.0 %
Test CRC 31F3DA70
Copy CRC 31F3DA70
Track not present in AccurateRip database
Copy OK
Track 14
Filename D:\Rips\Delroy Wilson - Rocksteady Massive! (2003) [FLAC]\14 - I'm In The Mood For Love.wav
Peak level 98.0 %
Track quality 100.0 %
Test CRC F0E8AFF5
Copy CRC F0E8AFF5
Track not present in AccurateRip database
Copy OK
Track 15
Filename D:\Rips\Delroy Wilson - Rocksteady Massive! (2003) [FLAC]\15 - Let There Be Love.wav
Peak level 97.9 %
Track quality 100.0 %
Test CRC B1110163
Copy CRC B1110163
Track not present in AccurateRip database
Copy OK
Track 16
Filename D:\Rips\Delroy Wilson - Rocksteady Massive! (2003) [FLAC]\16 - It's The Same Old Song.wav
Peak level 87.3 %
Track quality 100.0 %
Test CRC 6345C31C
Copy CRC 6345C31C
Track not present in AccurateRip database
Copy OK
Track 17
Filename D:\Rips\Delroy Wilson - Rocksteady Massive! (2003) [FLAC]\17 - Baby You've Got What It Takes.wav
Peak level 97.9 %
Track quality 100.0 %
Test CRC EB096280
Copy CRC EB096280
Track not present in AccurateRip database
Copy OK
Track 18
Filename D:\Rips\Delroy Wilson - Rocksteady Massive! (2003) [FLAC]\18 - Who Cares.wav
Peak level 98.0 %
Track quality 99.9 %
Test CRC 6266B7EE
Copy CRC 6266B7EE
Track not present in AccurateRip database
Copy OK
Track 19
Filename D:\Rips\Delroy Wilson - Rocksteady Massive! (2003) [FLAC]\19 - I Shall Be Released.wav
Peak level 97.9 %
Track quality 100.0 %
Test CRC 6D581EDC
Copy CRC 6D581EDC
Track not present in AccurateRip database
Copy OK
Track 20
Filename D:\Rips\Delroy Wilson - Rocksteady Massive! (2003) [FLAC]\20 - Hold Me Tight.wav
Peak level 98.0 %
Track quality 100.0 %
Test CRC B7161ED2
Copy CRC B7161ED2
Track not present in AccurateRip database
Copy OK
None of the tracks are present in the AccurateRip database
No errors occurred
End of status report

Содержание индексной карты (.CUE)

REM GENRE Reggae
REM DATE 2003
REM DISCID 040D0F14
REM COMMENT "ExactAudioCopy v0.99pb5"
FILE "01 - Cool Operator.wav" WAVE
TRACK 01 AUDIO
INDEX 01 00:00:00
FILE "02 - I'm In A Dancing Mood.wav" WAVE
TRACK 02 AUDIO
INDEX 01 00:00:00
FILE "03 - Stick By Me.wav" WAVE
TRACK 03 AUDIO
INDEX 01 00:00:00
FILE "04 - Better Must Come.wav" WAVE
TRACK 04 AUDIO
INDEX 01 00:00:00
FILE "05 - It's Impossible.wav" WAVE
TRACK 05 AUDIO
INDEX 01 00:00:00
FILE "06 - Tune In.wav" WAVE
TRACK 06 AUDIO
INDEX 01 00:00:00
FILE "07 - Trying To Conquer Me.wav" WAVE
TRACK 07 AUDIO
INDEX 01 00:00:00
FILE "08 - Riding For A Fall.wav" WAVE
TRACK 08 AUDIO
INDEX 01 00:00:00
FILE "09 - Rain From The Skies.wav" WAVE
TRACK 09 AUDIO
INDEX 01 00:00:00
FILE "10 - Keep On Running.wav" WAVE
TRACK 10 AUDIO
INDEX 01 00:00:00
FILE "11 - Here Comes The Heartaches.wav" WAVE
TRACK 11 AUDIO
INDEX 01 00:00:00
FILE "12 - Just Say Who.wav" WAVE
TRACK 12 AUDIO
INDEX 01 00:00:00
FILE "13 - Put Yourself In My Place.wav" WAVE
TRACK 13 AUDIO
INDEX 01 00:00:00
FILE "14 - I'm In The Mood For Love.wav" WAVE
TRACK 14 AUDIO
INDEX 01 00:00:00
FILE "15 - Let There Be Love.wav" WAVE
TRACK 15 AUDIO
INDEX 01 00:00:00
FILE "16 - It's The Same Old Song.wav" WAVE
TRACK 16 AUDIO
INDEX 01 00:00:00
FILE "17 - Baby You've Got What It Takes.wav" WAVE
TRACK 17 AUDIO
INDEX 01 00:00:00
FILE "18 - Who Cares.wav" WAVE
TRACK 18 AUDIO
INDEX 01 00:00:00
FILE "19 - I Shall Be Released.wav" WAVE
TRACK 19 AUDIO
INDEX 01 00:00:00
FILE "20 - Hold Me Tight.wav" WAVE
TRACK 20 AUDIO
INDEX 01 00:00:00
[torrents24.ru].t80458.torrent 
Торрент: Зарегистрирован [ 2019-04-11 15:55 ] · 5FD8F318BCAD96344984A6EE15F6574710B4DBFE

Скачать .torrent

Скачать

14 KB

Статус: проверено
Скачан: 0 раз
Размер: 311 MB
terms.php
[Профиль] [ЛС]
Показать сообщения:    
Ответить на тему

Текущее время: 16-Июн 23:42

Часовой пояс: UTC + 3



Вы не можете начинать темы
Вы не можете отвечать на сообщения
Вы не можете редактировать свои сообщения
Вы не можете удалять свои сообщения
Вы не можете голосовать в опросах
Вы не можете прикреплять файлы к сообщениям
Вы можете скачивать файлы

Интересное в сети