Адмирал / Михил Де Рюйтер / Michiel de Ruyter (Роэль Рейн / Roel Reiné) [2015, Нидерланды, боевик, приключения, история, HDRip] AVO (Юрий Сербин)

Ответить на тему
Статистика раздачи
Размер:  2,17 GB   |    Зарегистрирован:  2 месяца 16 дней   |    Скачан:  0 раз

Полного источника не было: Никогда

 
   
 
 
Автор Сообщение

Ведьмочка ®

Пол: Не указан

Стаж: 1 год 4 месяца

Сообщений: 117

Создавать темы 09-Апр-2019 15:44

[Цитировать]

Адмирал / Михил Де Рюйтер / Michiel de Ruyter
Страна: Нидерланды
Жанр: боевик, приключения, история
Год выпуска: 2015
Продолжительность: 02:31:53

Перевод: Авторский (одноголосый закадровый) Юрий Сербин
Субтитры: нет
Режиссер: Роэль Рейн / Roel Reiné
В ролях: Франк Ламерс, Барри Атсма, Рёланд Фернхут, Эгберт Вебер, Тиго Гернандт, Дерек Линт, Хайо Брюинс, Жуль Кройсет, Чарльз Дэнс
Описание: Высшее звание, которое могут получить моряки - это адмирал. Но для того, чтобы носить это звание, надо иметь много заслуг, как в военном деле, так и совершить много других полезных для отечества дел. Михил Рюйтер всю жизнь прослужил в морском флоте в Нидерландах, за что был удостоен высокого звания. Рюйтер участвовал в большом количестве морских сражений (наиболее известные: с берберскими пиратами и кораблями английского флота) и всегда выходил победителем. Кроме этого Михил совершил массу путешествий и побывал во многих частях земного шара.....
17 век. Нидерланды оказались на грани гражданской войны. Адмирал Михил Рюйтер пользовался большой популярностью у народа. И власти страны настолько боясь усиления его политических позиций, что было решено любой ценой избавится от народного любимца. Рюйтер получает сложное задание: провести рейд в Средиземном море. Выполнить этот приказ очень сложно, так как в этом море большое превосходство морских армад Франции и Испании. Но Михил - человек чести, он отправляется на смертельное задание...

Сэмпл: http://multi-up.com/1228851
Качество видео: НDRip (Исходник BDRip 1080p)
Формат видео: AVI
Видео: XviD 73, 720x304, (2,35:1), 24,000 fps, 1640 Кбит/с, 8 бит, 0.31 bit/pixel
Аудио: Русский (АС3, 6 ch (Front: L C R, Side: L R, LFE), 48,0 KHz, 384 Kbps)

MediaInfo

Общее
Полное имя : D:\Фильмы на трекер\Адмирал (боевик, биография, история 2015 год).avi
Формат : AVI
Формат/Информация : Audio Video Interleave
Профиль формата : OpenDML
Размер файла : 2,17 Гбайт
Продолжительность : 2 ч. 31 м.
Общий поток : 2044 Кбит/сек
Программа кодирования : VirtualDubMod 1.5.10.2 (build 2540/release)
Библиотека кодирования : VirtualDubMod build 2540/release
Видео
Идентификатор : 0
Формат : MPEG-4 Visual
Профиль формата : Advanced Simple@L5
Параметр BVOP формата : 2
Параметр QPel формата : Нет
Параметр GMC формата : Без точки перехода
Параметр матрицы формата : Выборочная
Идентификатор кодека : XVID
Идентификатор кодека/Подсказка : XviD
Продолжительность : 2 ч. 31 м.
Битрейт : 1648 Кбит/сек
Ширина : 720 пикселей
Высота : 304 пикселя
Соотношение сторон : 2,35:1
Частота кадров : 24,000 кадра/сек
Цветовое пространство : YUV
Субдискретизация насыщенности : 4:2:0
Битовая глубина : 8 бит
Тип развёртки : Прогрессивная
Метод сжатия : С потерями
Бит/(Пиксели*Кадры) : 0.314
Размер потока : 1,75 Гбайт (81%)
Библиотека кодирования : XviD 73
Аудио
Идентификатор : 1
Формат : AC-3
Формат/Информация : Audio Coding 3
Расширение режима : CM (complete main)
Параметр Endianness формата : Big
Идентификатор кодека : 2000
Продолжительность : 2 ч. 31 м.
Вид битрейта : Постоянный
Битрейт : 384 Кбит/сек
Каналы : 6 каналов
Расположение каналов : Front: L C R, Side: L R, LFE
Частота : 48,0 КГц
Частота кадров : 31,250 кадров/сек (1536 spf)
Метод сжатия : С потерями
Размер потока : 417 Мбайт (19%)
Выравнивание : Разделение по промежуткам
Продолжительность промежутка : 42 мс. (1,00 видеокадр)
Время предзагрузки промежутка : 500 мс.

Скриншот c названием фильма

Скриншоты

[torrents24.ru].t80261.torrent 
Торрент: Зарегистрирован [ 2019-04-09 15:45 ] · B6C658435C394A4B382793650E9EC4176E1862E3

Скачать .torrent

Скачать

11 KB

Статус: проверено
Скачан: 0 раз
Размер: 2,17 GB
terms.php
[Профиль] [ЛС]
Показать сообщения:    
Ответить на тему

Текущее время: 26-Июн 08:53

Часовой пояс: UTC + 3



Вы не можете начинать темы
Вы не можете отвечать на сообщения
Вы не можете редактировать свои сообщения
Вы не можете удалять свои сообщения
Вы не можете голосовать в опросах
Вы не можете прикреплять файлы к сообщениям
Вы можете скачивать файлы

Интересное в сети