Неверный / В ста милях от дома / 100 Mile Rule (Брент Хафф / Brent Huff) [2002, США, комедия, триллер, DVDRemux] DVO + Original (Eng)

Ответить на тему
Статистика раздачи
Размер:  3,79 GB   |    Зарегистрирован:  2 месяца 16 дней   |    Скачан:  0 раз

Полного источника не было: Никогда

 
   
 
 
Автор Сообщение

Ведьмочка ®

Пол: Не указан

Стаж: 1 год 4 месяца

Сообщений: 117

Создавать темы 09-Апр-2019 15:44

[Цитировать]

Неверный / В ста милях от дома /
100 Mile Rule
Страна: США
Жанр: Комедия, триллер
Год выпуска: 2002
Продолжительность: 01:29:11
Перевод: Профессиональный (двухголосый закадровый)-Режиссёр: Брент Хафф / Brent Huff
В ролях: Джейк Уэбер /Jake Weber/, Мария Белло /Maria Bello/, Дэвид Торнтон /David Thornton/, Майкл МакКин /Michael McKean/, Ник Чинлунд /Nick Chinlund/, Шон Хафф /Shawn Huff/-Описание: Если вы за сто миль от дома, то измена за измену не считается. Такой принцип у двух приятелей, находящихся на семинаре в Лос-Анжелесе. А их коллега Бобби по таким правилам не играет. Правда до тех пор, пока не встречает сексапильную блондинку Монику. И страстная ночь превращается в ловушку. Моника пошлет пленку с записью из ночных кувырканий жене, если не получит 60 тысяч долларов. Помощь в этой проблеме предлагают приятели Бобби, но, в конце концов, лишь Бобби должен сам решить: стоит ли семейная жизнь убийства или нет...- -Оригинал скачан с SDBits. Синхронизация в Лас-Вегас Sony Vegas-Качество: DVDRemux
Формат: MKV
Видео: 720x576 (16:9) @ 1024x576, MPEG-2 / 5693 kbps / 25 fps
Аудио 1: AC3, 48 kHz, 2ch, 192.00 kbps: [RUS]
Аудио 2: AC3, 48 kHz, 2ch, 192.00 kbps: [ENG]
Субтитры: шведские, норвежские, датские
Разбивка на главы: есть

MediaInfo

Общее
Уникальный идентификатор : 79548981430332384879074646536450787435 (0x3BD893980237C406A6DB02C48D38C86B)
Полное имя : D:\Ремуксы\[AORE] Cult Films Remuxes\100 Mile Rule 2002\100 Mile Rule.mkv
Формат : Matroska
Версия формата : Version 4
Размер файла : 3,79 Гбайт
Продолжительность : 1 ч. 29 м.
Режим общего битрейта : Переменный
Общий поток : 6085 Кбит/сек
Дата кодирования : UTC 2019-01-28 09:03:21
Программа кодирования : mkvmerge v28.2.0 ('The Awakening') 64-bit
Библиотека кодирования : libebml v1.3.6 + libmatroska v1.4.9
Видео
Идентификатор : 1
Формат : MPEG Video
Версия формата : Version 2
Профиль формата : Main@Main
Настройки формата : CustomMatrix / BVOP
Параметр BVOP формата : Да
Параметр матрицы формата : Выборочная
Параметр GOP формата : Variable
Идентификатор кодека : V_MPEG2
Идентификатор кодека/Информация : MPEG 1 or 2 Video
Продолжительность : 1 ч. 29 м.
Вид битрейта : Переменный
Битрейт : 5693 Кбит/сек
Максимальный битрейт : 9800 Кбит/сек
Ширина : 720 пикселей
Высота : 576 пикселей
Соотношение сторон : 16:9
Режим частоты кадров : Постоянный
Частота кадров : 25,000 кадров/сек
Стандарт вещания : PAL
Цветовое пространство : YUV
Субдискретизация насыщенности : 4:2:0
Битовая глубина : 8 бит
Тип развёртки : Прогрессивная
Порядок развёртки : Верхнее поле первое
Метод сжатия : С потерями
Бит/(Пиксели*Кадры) : 0.549
Временной код первого кадра : 01:00:00:13
Оригинал временного кода : Group of pictures header
GOP, открыто/закрыто : Открыто
GOP, открыто/закрыто на первом кадре : Закрыто
Размер потока : 3,55 Гбайт (94%)
Язык : English
Default : Нет
Forced : Нет
Аудио #1
Идентификатор : 2
Формат : AC-3
Формат/Информация : Audio Coding 3
Коммерческое название : Dolby Digital
Идентификатор кодека : A_AC3
Продолжительность : 1 ч. 29 м.
Вид битрейта : Постоянный
Битрейт : 192 Кбит/сек
Каналы : 2 канала
Channel layout : L R
Частота : 48,0 КГц
Частота кадров : 31,250 кадров/сек (1536 SPF)
Битовая глубина : 16 бит
Метод сжатия : С потерями
Размер потока : 122 Мбайт (3%)
Заголовок : DVO
Язык : Russian
ServiceKind/String : Complete Main
Default : Да
Forced : Нет
Аудио #2
Идентификатор : 3
Формат : AC-3
Формат/Информация : Audio Coding 3
Коммерческое название : Dolby Digital
Идентификатор кодека : A_AC3
Продолжительность : 1 ч. 29 м.
Вид битрейта : Постоянный
Битрейт : 192 Кбит/сек
Каналы : 2 канала
Channel layout : L R
Частота : 48,0 КГц
Частота кадров : 31,250 кадров/сек (1536 SPF)
Битовая глубина : 16 бит
Метод сжатия : С потерями
Размер потока : 122 Мбайт (3%)
Язык : English
ServiceKind/String : Complete Main
Default : Нет
Forced : Нет
Текст #1
Идентификатор : 4
Формат : VobSub
Режим смешивания : zlib
Идентификатор кодека : S_VOBSUB
Идентификатор кодека/Информация : Picture based subtitle format used on DVDs
Продолжительность : 1 ч. 24 м.
Битрейт : 4497 бит/сек
ElementCount : 763
Размер потока : 2,71 Мбайт (0%)
Язык : Swedish
Default : Да
Forced : Нет
Текст #2
Идентификатор : 5
Формат : VobSub
Режим смешивания : zlib
Идентификатор кодека : S_VOBSUB
Идентификатор кодека/Информация : Picture based subtitle format used on DVDs
Продолжительность : 1 ч. 24 м.
Битрейт : 4507 бит/сек
ElementCount : 764
Размер потока : 2,72 Мбайт (0%)
Язык : Norwegian
Default : Нет
Forced : Нет
Текст #3
Идентификатор : 6
Формат : VobSub
Режим смешивания : zlib
Идентификатор кодека : S_VOBSUB
Идентификатор кодека/Информация : Picture based subtitle format used on DVDs
Продолжительность : 1 ч. 24 м.
Битрейт : 4405 бит/сек
ElementCount : 764
Размер потока : 2,66 Мбайт (0%)
Язык : Danish
Default : Нет
Forced : Нет
Меню
00:00:00.000 : en:Chapter 01
00:05:25.640 : en:Chapter 02
00:09:57.120 : en:Chapter 03
00:13:29.400 : en:Chapter 04
00:20:27.600 : en:Chapter 05
00:25:27.680 : en:Chapter 06
00:29:21.880 : en:Chapter 07
00:34:53.960 : en:Chapter 08
00:39:18.120 : en:Chapter 09
00:44:44.200 : en:Chapter 10
00:49:00.280 : en:Chapter 11
00:54:48.360 : en:Chapter 12
00:58:10.320 : en:Chapter 13
01:06:54.040 : en:Chapter 14
01:09:49.760 : en:Chapter 15
01:14:46.800 : en:Chapter 16
01:21:14.240 : en:Chapter 17
01:24:49.560 : en:Chapter 18

Скриншоты

DVD-Rip (576x304!!!)Внимание! Я релизер, а не сидер! Всем мои раздачам нужны сиды, так что не уходите с раздачи!A CultFilms™ Remux
[torrents24.ru].t80253.torrent 
Торрент: Зарегистрирован [ 2019-04-09 15:45 ] · CA306C1510383785C1DEA8B4AECD8C1E3580AC57

Скачать .torrent

Скачать

19 KB

Статус: проверено
Скачан: 0 раз
Размер: 3,79 GB
terms.php
[Профиль] [ЛС]
Показать сообщения:    
Ответить на тему

Текущее время: 26-Июн 08:50

Часовой пояс: UTC + 3



Вы не можете начинать темы
Вы не можете отвечать на сообщения
Вы не можете редактировать свои сообщения
Вы не можете удалять свои сообщения
Вы не можете голосовать в опросах
Вы не можете прикреплять файлы к сообщениям
Вы можете скачивать файлы

Интересное в сети