(Ballad, Pop Rock) [CD] Crispian St. Peters - The Anthology - 1996, WavPack (image+.cue), lossless

Ответить на тему
Статистика раздачи
Размер:  398 MB   |    Зарегистрирован:  2 месяца 18 дней   |    Скачан:  1 раз

Полного источника не было: 30 дней

 
   
 
 
Автор Сообщение

folk ®

Пол: Не указан

Стаж: 1 год 3 месяца

Сообщений: 136

Создавать темы 07-Апр-2019 15:49

[Цитировать]

Crispian St. Peters / The Anthology
All the Hits plus rare and unreleased tracks
Жанр: Ballad, Pop Rock
Носитель: CD
Страна-производитель диска (релиза): Germany
Год издания: 1996
Издатель (лейбл): Repertoire Records
Номер по каталогу: REP 4608-WY
Страна исполнителя (группы): UK
Аудиокодек: WavPack (*.wv)
Тип рипа: image+.cue
Битрейт аудио: lossless
Продолжительность: 01:18:35
Источник: собственный рип издания из коллекции
Наличие сканов в содержимом раздачи: да
Треклист:
01. You Were On My Mind [0:02:44.25]
02. The Pied Piper [0:02:31.50]
03. Free Spirit [0:02:17.22]
04. But She's Untrue [0:03:09.45]
05. Changes [0:02:43.63]
06. Carolina [0:02:25.65]
07. At This Moment [0:02:11.30]
08. No No No [0:02:41.45]
09. Your Ever Changing Mind [0:02:24.40]
10. You'll Forget Me, Goodbye [0:02:29.40]
11. You Have Gone [0:02:16.07]
12. Wandering Hobo [0:02:09.25]
13. Monumental Queen [0:02:37.33]
14. Do Daddy Do [0:03:03.07]
15. Oh Caroline [0:03:24.23]
16. It Ain't The Same [0:02:48.40]
17. Every Time You Sinned [0:02:39.05]
18. Laura [0:02:27.10]
19. Sweet Lies [0:02:38.47]
20. Please Take Me Back [0:03:06.25]
21. Love Love Love [0:02:45.18]
22. Three Goodbyes [0:02:16.27]
23. The Silent Times [0:02:45.03]
24. That's Why We Are Through [0:02:27.65]
25. I Fall To Pieces [0:02:51.27]
26. I've Cried A Mile [0:02:25.70]
27. Country Roads [0:03:24.53]
28. Sailing Deep Water [0:04:09.00]
29. The Pied Piper [0:02:39.65]

Лог создания рипа

Exact Audio Copy V1.3 from 2. September 2016
EAC extraction logfile from 6. April 2019, 12:31
Crispian St. Peters / The Anthology
Used drive : PLEXTOR DVDR PX-L890SA Adapter: 1 ID: 0
Read mode : Secure
Utilize accurate stream : Yes
Defeat audio cache : Yes
Make use of C2 pointers : No
Read offset correction : 6
Overread into Lead-In and Lead-Out : No
Fill up missing offset samples with silence : Yes
Delete leading and trailing silent blocks : No
Null samples used in CRC calculations : Yes
Used interface : Native Win32 interface for Win NT & 2000
Used output format : User Defined Encoder
Selected bitrate : 1024 kBit/s
Quality : High
Add ID3 tag : No
Command line compressor : C:\Program Files (x86)\Exact Audio Copy\wavpack.exe
Additional command line options : -lm %source%
TOC of the extracted CD
Track | Start | Length | Start sector | End sector
---------------------------------------------------------
1 | 0:00.00 | 2:44.25 | 0 | 12324
2 | 2:44.25 | 2:31.50 | 12325 | 23699
3 | 5:16.00 | 2:17.22 | 23700 | 33996
4 | 7:33.22 | 3:09.45 | 33997 | 48216
5 | 10:42.67 | 2:43.63 | 48217 | 60504
6 | 13:26.55 | 2:25.65 | 60505 | 71444
7 | 15:52.45 | 2:11.30 | 71445 | 81299
8 | 18:04.00 | 2:41.45 | 81300 | 93419
9 | 20:45.45 | 2:24.40 | 93420 | 104259
10 | 23:10.10 | 2:29.40 | 104260 | 115474
11 | 25:39.50 | 2:16.07 | 115475 | 125681
12 | 27:55.57 | 2:09.25 | 125682 | 135381
13 | 30:05.07 | 2:37.33 | 135382 | 147189
14 | 32:42.40 | 3:03.07 | 147190 | 160921
15 | 35:45.47 | 3:24.23 | 160922 | 176244
16 | 39:09.70 | 2:48.40 | 176245 | 188884
17 | 41:58.35 | 2:39.05 | 188885 | 200814
18 | 44:37.40 | 2:27.10 | 200815 | 211849
19 | 47:04.50 | 2:38.47 | 211850 | 223746
20 | 49:43.22 | 3:06.25 | 223747 | 237721
21 | 52:49.47 | 2:45.18 | 237722 | 250114
22 | 55:34.65 | 2:16.27 | 250115 | 260341
23 | 57:51.17 | 2:45.03 | 260342 | 272719
24 | 60:36.20 | 2:27.65 | 272720 | 283809
25 | 63:04.10 | 2:51.27 | 283810 | 296661
26 | 65:55.37 | 2:25.70 | 296662 | 307606
27 | 68:21.32 | 3:24.53 | 307607 | 322959
28 | 71:46.10 | 4:09.00 | 322960 | 341634
29 | 75:55.10 | 2:39.65 | 341635 | 353624
Range status and errors
Selected range
Filename D:\wwphil\Crispian St. Peters - The Anthology\Crispian St. Peters - The Anthology.wav
Peak level 98.4 %
Extraction speed 10.2 X
Range quality 100.0 %
Test CRC 2DEE2ED5
Copy CRC 2DEE2ED5
Copy OK
No errors occurred
AccurateRip summary
Track 1 accurately ripped (confidence 7) [5AD53697] (AR v2)
Track 2 accurately ripped (confidence 7) [6E1C4EB7] (AR v2)
Track 3 accurately ripped (confidence 7) [B0F35010] (AR v2)
Track 4 accurately ripped (confidence 7) [8D0F934F] (AR v2)
Track 5 accurately ripped (confidence 7) [0A1DE5FC] (AR v2)
Track 6 accurately ripped (confidence 7) [825FFC5E] (AR v2)
Track 7 accurately ripped (confidence 7) [4AE5C7FF] (AR v2)
Track 8 accurately ripped (confidence 7) [AE3AC05C] (AR v2)
Track 9 accurately ripped (confidence 7) [1AD27871] (AR v2)
Track 10 accurately ripped (confidence 7) [6AA6F1A6] (AR v2)
Track 11 accurately ripped (confidence 7) [E815CAC2] (AR v2)
Track 12 accurately ripped (confidence 7) [B77A565D] (AR v2)
Track 13 accurately ripped (confidence 7) [8D106ABC] (AR v2)
Track 14 accurately ripped (confidence 7) [9718A4B4] (AR v2)
Track 15 accurately ripped (confidence 7) [44099787] (AR v2)
Track 16 accurately ripped (confidence 7) [A4676C74] (AR v2)
Track 17 accurately ripped (confidence 7) [7C6B0DF9] (AR v2)
Track 18 accurately ripped (confidence 7) [AF0FB495] (AR v2)
Track 19 accurately ripped (confidence 7) [806F0496] (AR v2)
Track 20 accurately ripped (confidence 7) [24E90706] (AR v2)
Track 21 accurately ripped (confidence 7) [7D6CB09C] (AR v2)
Track 22 accurately ripped (confidence 7) [D5651FD0] (AR v2)
Track 23 accurately ripped (confidence 7) [E0B4AF45] (AR v2)
Track 24 accurately ripped (confidence 7) [3750483E] (AR v2)
Track 25 accurately ripped (confidence 7) [68BEE33A] (AR v2)
Track 26 accurately ripped (confidence 7) [F30CE865] (AR v2)
Track 27 accurately ripped (confidence 7) [113C329D] (AR v2)
Track 28 accurately ripped (confidence 7) [D3BBC22A] (AR v2)
Track 29 accurately ripped (confidence 7) [06D9E23A] (AR v2)
All tracks accurately ripped
End of status report
==== Log checksum 6302B49F4B5C7924359EAB5CAADE9A5C0944F3F56CCCFB837E29A36615E36102 ====

Скриншот спектра частот

[torrents24.ru].t80109.torrent 
Торрент: Зарегистрирован [ 2019-04-07 15:50 ] · 810D9421F79B64B4E9BE11CC2A842D599F6A7C2A

Скачать .torrent

Скачать

16 KB

Статус: проверено
Скачан: 1 раз
Размер: 398 MB
terms.php
[Профиль] [ЛС]
Показать сообщения:    
Ответить на тему

Текущее время: 26-Июн 09:28

Часовой пояс: UTC + 3



Вы не можете начинать темы
Вы не можете отвечать на сообщения
Вы не можете редактировать свои сообщения
Вы не можете удалять свои сообщения
Вы не можете голосовать в опросах
Вы не можете прикреплять файлы к сообщениям
Вы можете скачивать файлы

Интересное в сети