(Pop-Rock, Folk Rock, Indie Rock) [CD] Catchers - Discography 1994-1998 (2CD) FLAC (image+.cue), lossless

Ответить на тему
Статистика раздачи
Размер:  631 MB   |    Зарегистрирован:  2 месяца 18 дней   |    Скачан:  0 раз

Полного источника не было: Никогда

 
   
 
 
Автор Сообщение

folk ®

Пол: Не указан

Стаж: 1 год 3 месяца

Сообщений: 136

Создавать темы 07-Апр-2019 15:49

[Цитировать]

Catchers - Discography 1994-1998 Жанр: Pop-Rock, Folk Rock, Indie Rock
Носитель: CD
Страна-производитель диска (релиза): UK
Год издания: 1994-1998
Издатель (лейбл): Setanta
Страна исполнителя (группы): UK
Аудиокодек: FLAC (*.flac)
Тип рипа: image+.cue
Битрейт аудио: lossless
Продолжительность: 01:41:45
Источник: собственная покупка
Наличие сканов в содержимом раздачи: да

1994 - Mute (00:50:34)

Catchers - Mute 1994
Label:Setanta ‎– amc 54.012
Format:CD, Album
Country:UK
Released:1994
Style:Folk Rock, Indie Rock
Tracklist:
01. Beauty No. 3 3:30
02. Cotton Dress 3:58
03. Apathy 3:34
04. Country Freaks 4:08
05. Worm Out 3:25
06. Jesus Spaceman 5:01
07. Song For Autumn 3:56
08. Hollowed 5:44
09. Shifting 3:46
10. Sleepyhead 5:22
11. La Luna 3:38
12. Epitaph 4:28

log

Exact Audio Copy V1.3 from 2. September 2016
Отчёт EAC об извлечении, выполненном 5. апреля 2019, 19:38
Catchers / Mute
Дисковод: SONY CD-RW CRX230ED Adapter: 1 ID: 1
Режим чтения : Достоверность
Использование точного потока : Да
Отключение кэша аудио : Да
Использование указателей C2 : Нет
Коррекция смещения при чтении : 6
Способность читать области Lead-in и Lead-out : Нет
Заполнение пропущенных сэмплов тишиной : Да
Удаление блоков с тишиной в начале и конце : Нет
При вычислениях CRC использовались нулевые сэмплы : Да
Интерфейс : Встроенный Win32-интерфейс для Win NT/2000
Выходной формат : Внутренние WAV-операции
Формат сэмплов : 44.100 Гц; 16 бит; стерео
TOC извлечённого CD
Трек | Старт | Длительность | Начальный сектор | Конечный сектор
---------------------------------------------------------------------
1 | 0:00.32 | 3:30.58 | 32 | 15839
2 | 3:31.15 | 3:58.02 | 15840 | 33691
3 | 7:29.17 | 3:34.30 | 33692 | 49771
4 | 11:03.47 | 4:07.73 | 49772 | 68369
5 | 15:11.45 | 3:25.35 | 68370 | 83779
6 | 18:37.05 | 5:01.20 | 83780 | 106374
7 | 23:38.25 | 3:55.72 | 106375 | 124071
8 | 27:34.22 | 5:44.43 | 124072 | 149914
9 | 33:18.65 | 3:46.50 | 149915 | 166914
10 | 37:05.40 | 5:22.15 | 166915 | 191079
11 | 42:27.55 | 3:38.17 | 191080 | 207446
12 | 46:05.72 | 4:28.63 | 207447 | 227609
Характеристики диапазона извлечения и сообщения об ошибках
Выбранный диапазон
Имя файла C:\Users\Serg22\Documents\Catchers - Mute 1994\Catchers - Mute.wav
Пиковый уровень 97.7 %
Скорость извлечения 5.7 X
Качество диапазона 99.9 %
CRC теста E55888F5
CRC копии E55888F5
Копирование... OK
Ошибок не произошло
AccurateRip: сводка
Трек 1 точность не определена (достоверность 12) [0A716F74], AccurateRip вернул [39786C90] (AR v2)
Трек 2 точность не определена (достоверность 12) [1869598E], AccurateRip вернул [79543EBB] (AR v2)
Трек 3 точность не определена (достоверность 12) [3518129E], AccurateRip вернул [8CC6E43B] (AR v2)
Трек 4 точность не определена (достоверность 12) [A2E79642], AccurateRip вернул [652BAC67] (AR v2)
Трек 5 точность не определена (достоверность 12) [39336E69], AccurateRip вернул [5D3B8E0D] (AR v2)
Трек 6 точность не определена (достоверность 12) [2B61E03E], AccurateRip вернул [CDBBF83C] (AR v2)
Трек 7 точность не определена (достоверность 12) [204FCD8F], AccurateRip вернул [5452344E] (AR v2)
Трек 8 точность не определена (достоверность 12) [68759A9B], AccurateRip вернул [791CDD6D] (AR v2)
Трек 9 точность не определена (достоверность 12) [561437A6], AccurateRip вернул [F6695797] (AR v2)
Трек 10 точность не определена (достоверность 12) [5972BF7F], AccurateRip вернул [E154471E] (AR v2)
Трек 11 точность не определена (достоверность 12) [840DDD59], AccurateRip вернул [07C23F02] (AR v2)
Трек 12 точность не определена (достоверность 12) [1181793F], AccurateRip вернул [A5F2B32C] (AR v2)
Ни один трек не прошёл проверки на точность
В вашей базе может быть иной вариант штамповки диска
Конец отчёта
==== Контрольная сумма отчёта DFEC881B754144C08C74BA27084CF2CF49CBE5451CA3CD56AE635F6A461789A5 ====

Cue

REM GENRE Rock
REM DATE 1994
REM DISCID 8E0BDA0C
REM COMMENT "ExactAudioCopy v1.3"
PERFORMER "Catchers"
TITLE "Mute"
FILE "Catchers - Mute.flac" WAVE
TRACK 01 AUDIO
TITLE "Beauty No. 3"
PERFORMER "Catchers"
INDEX 00 00:00:00
INDEX 01 00:00:32
TRACK 02 AUDIO
TITLE "Cotton Dress"
PERFORMER "Catchers"
INDEX 00 03:30:74
INDEX 01 03:31:15
TRACK 03 AUDIO
TITLE "Apathy"
PERFORMER "Catchers"
INDEX 00 07:29:03
INDEX 01 07:29:17
TRACK 04 AUDIO
TITLE "Country Freaks"
PERFORMER "Catchers"
INDEX 00 11:03:07
INDEX 01 11:03:47
TRACK 05 AUDIO
TITLE "Worm Out"
PERFORMER "Catchers"
INDEX 01 15:11:45
TRACK 06 AUDIO
TITLE "Jesus Spaceman"
PERFORMER "Catchers"
INDEX 01 18:37:05
TRACK 07 AUDIO
TITLE "Song For Autumn"
PERFORMER "Catchers"
INDEX 00 23:38:22
INDEX 01 23:38:25
TRACK 08 AUDIO
TITLE "Hollowed"
PERFORMER "Catchers"
INDEX 00 27:32:72
INDEX 01 27:34:22
TRACK 09 AUDIO
TITLE "Shifting"
PERFORMER "Catchers"
INDEX 00 33:17:68
INDEX 01 33:18:65
TRACK 10 AUDIO
TITLE "Sleepyhead"
PERFORMER "Catchers"
INDEX 00 37:04:35
INDEX 01 37:05:40
TRACK 11 AUDIO
TITLE "La Luna"
PERFORMER "Catchers"
INDEX 00 42:27:01
INDEX 01 42:27:55
TRACK 12 AUDIO
TITLE "Epitaph"
PERFORMER "Catchers"
INDEX 01 46:05:72

1998 - Stooping to Fit (00:51:11)

Catchers - Stooping to Fit 1998

Label:Setanta ‎– 724384631420
Format:CD, Album
Country:UK
Released:1998
Style:Indie Rock
Tracklist:
01. Half Awake 4:39
02. Call Her Name 5:59
03. This Is Not My Home 5:12
04. Aqualapping 5:29
05. Ribbons 5:30
06. When I Get Over You 3:44
07. Deflect 5:39
08. Spellbound 5:09
09. Come Around 4:10
10. In The Way 4:20
11. Untitled 1:16

Log

Exact Audio Copy V1.3 from 2. September 2016
Отчёт EAC об извлечении, выполненном 5. апреля 2019, 18:28
Catchers / Stooping to Fit
Дисковод: SONY CD-RW CRX230ED Adapter: 1 ID: 1
Режим чтения : Достоверность
Использование точного потока : Да
Отключение кэша аудио : Да
Использование указателей C2 : Нет
Коррекция смещения при чтении : 6
Способность читать области Lead-in и Lead-out : Нет
Заполнение пропущенных сэмплов тишиной : Да
Удаление блоков с тишиной в начале и конце : Нет
При вычислениях CRC использовались нулевые сэмплы : Да
Интерфейс : Встроенный Win32-интерфейс для Win NT/2000
Выходной формат : Внутренние WAV-операции
Формат сэмплов : 44.100 Гц; 16 бит; стерео
TOC извлечённого CD
Трек | Старт | Длительность | Начальный сектор | Конечный сектор
---------------------------------------------------------------------
1 | 0:00.00 | 4:39.56 | 0 | 20980
2 | 4:39.56 | 5:59.26 | 20981 | 47931
3 | 10:39.07 | 5:12.27 | 47932 | 71358
4 | 15:51.34 | 5:28.73 | 71359 | 96031
5 | 21:20.32 | 5:30.32 | 96032 | 120813
6 | 26:50.64 | 3:44.34 | 120814 | 137647
7 | 30:35.23 | 5:39.40 | 137648 | 163112
8 | 36:14.63 | 5:09.14 | 163113 | 186301
9 | 41:24.02 | 4:10.50 | 186302 | 205101
10 | 45:34.52 | 4:20.35 | 205102 | 224636
11 | 49:55.12 | 1:16.10 | 224637 | 230346
Характеристики диапазона извлечения и сообщения об ошибках
Выбранный диапазон
Имя файла C:\Users\Serg22\Documents\Catchers - Stooping to Fit 1998\Catchers - Stooping to Fit.wav
Пиковый уровень 94.3 %
Скорость извлечения 5.8 X
Качество диапазона 100.0 %
CRC теста 8D9184B8
CRC копии 8D9184B8
Копирование... OK
Ошибок не произошло
AccurateRip: сводка
Трек 1 : извлечено точно (доверие 4) [8AB02340] (AR v2)
Трек 2 : извлечено точно (доверие 4) [48D663DF] (AR v2)
Трек 3 : извлечено точно (доверие 4) [D293B332] (AR v2)
Трек 4 : извлечено точно (доверие 4) [BF94B603] (AR v2)
Трек 5 : извлечено точно (доверие 4) [CA39BBA6] (AR v2)
Трек 6 : извлечено точно (доверие 4) [A6394C91] (AR v2)
Трек 7 : извлечено точно (доверие 4) [A48B12AD] (AR v2)
Трек 8 : извлечено точно (доверие 4) [4109FAFD] (AR v2)
Трек 9 : извлечено точно (доверие 4) [1B0CC6E1] (AR v2)
Трек 10 : извлечено точно (доверие 4) [8E9E306B] (AR v2)
Трек 11 : извлечено точно (доверие 4) [C61390BC] (AR v2)
Все треки извлечены точно
Конец отчёта
==== Контрольная сумма отчёта 106376DE9E3C2916824D03F3631CEF671D5E29E33522941439B519C688B64916 ====

Cue

REM GENRE Indie
REM DATE 1998
REM DISCID A40BFF0B
REM COMMENT "ExactAudioCopy v1.3"
PERFORMER "Catchers"
TITLE "Stooping to Fit"
FILE "Catchers - Stooping to Fit.flac" WAVE
TRACK 01 AUDIO
TITLE "Half Awake"
PERFORMER "Catchers"
INDEX 01 00:00:00
TRACK 02 AUDIO
TITLE "Call Her Name"
PERFORMER "Catchers"
INDEX 00 04:38:66
INDEX 01 04:39:56
TRACK 03 AUDIO
TITLE "This Is Not My Home"
PERFORMER "Catchers"
INDEX 00 10:38:17
INDEX 01 10:39:07
TRACK 04 AUDIO
TITLE "Aqualapping"
PERFORMER "Catchers"
INDEX 00 15:49:59
INDEX 01 15:51:34
TRACK 05 AUDIO
TITLE "Ribbons"
PERFORMER "Catchers"
INDEX 01 21:20:32
TRACK 06 AUDIO
TITLE "When I Get Over You"
PERFORMER "Catchers"
INDEX 00 26:49:14
INDEX 01 26:50:64
TRACK 07 AUDIO
TITLE "Deflect"
PERFORMER "Catchers"
INDEX 00 30:33:48
INDEX 01 30:35:23
TRACK 08 AUDIO
TITLE "Spellbound"
PERFORMER "Catchers"
INDEX 00 36:13:13
INDEX 01 36:14:63
TRACK 09 AUDIO
TITLE "Come Around"
PERFORMER "Catchers"
INDEX 00 41:22:27
INDEX 01 41:24:02
TRACK 10 AUDIO
TITLE "In the Way"
PERFORMER "Catchers"
INDEX 00 45:33:02
INDEX 01 45:34:52
TRACK 11 AUDIO
TITLE "Theme from In the Way [unlisted bonus track]"
PERFORMER "Catchers"
INDEX 00 49:53:37
INDEX 01 49:55:12

Состав

Dale Grundle - Vocals, Guitar
Alice Lemon - Vocals, Keyboards
Ger FitzGerald - Bass
Peter Kelly - Drums, Percussion
СКАЧАЛИ НЕ ЗАБЫВАЕМ ГОВОРИТЬ СПАСИБО!
[torrents24.ru].t80100.torrent 
Торрент: Зарегистрирован [ 2019-04-07 15:50 ] · 1982288613DFE20165077CD89FEE84372D3A0E7B

Скачать .torrent

Скачать

15 KB

Статус: проверено
Скачан: 0 раз
Размер: 631 MB
terms.php
[Профиль] [ЛС]
Показать сообщения:    
Ответить на тему

Текущее время: 26-Июн 09:23

Часовой пояс: UTC + 3



Вы не можете начинать темы
Вы не можете отвечать на сообщения
Вы не можете редактировать свои сообщения
Вы не можете удалять свои сообщения
Вы не можете голосовать в опросах
Вы не можете прикреплять файлы к сообщениям
Вы можете скачивать файлы

Интересное в сети