(Score/Arrangement/Remaster) [CD] R4 -THE 20TH ANNIV. SOUNDS- (by Namco Sound Team) - 2019, FLAC (tracks+.cue), lossless

Ответить на тему
Статистика раздачи
Размер:  1,02 GB   |    Зарегистрирован:  26 дней   |    Скачан:  1 раз

Полного источника не было: 25 дней

 
   
 
 
Автор Сообщение

Alino4ka ®

Пол: Не указан

Стаж: 1 год 2 месяца

Сообщений: 12

Создавать темы 27-Мар-2019 16:34

[Цитировать]

R4 -THE 20TH ANNIV. SOUNDS-- Жанр: Score/Arrangement/Remaster
Композиторы: Hiroshi Okubo, Kohta Takahashi, Asuka Sakai, Tetsukazu Nakanishi, Koji Nakagawa
Год выпуска: 2019
Носитель: CD
Аудио кодек: FLAC (*.flac)
Тип рипа: tracks+.cue
Битрейт аудио: lossless
Продолжительность: 00:02:30:51
Источник: ffshrine (Space Lion)
-:: VGMdb :: RG Soundtracks ::-

CD1 - THE REMIXES

01. Ryo Watanabe - Spiral Ahead (Ryo Watanabe Remix) (5:00)
02. HIROSHI WATANABE - Pearl Blue Soul (HIROSHI WATANABE Remix) (5:25)
03. Kohta Takahashi - Naked Glow (20th Anniv. Mix) (4:32)
04. J99 - Your Vibe (J99 Remix) (5:20)
05. sanodg - Lucid Rhythms (#GadgetSwitch Remix) (5:13)
06. Sampling Masters MEGA - Thru (Sampling Masters MEGA Remix) (4:58)
07. Sampling Masters AYA - Silhouette Dance (Sampling Masters AYA Remix) (6:10)
08. Takeshi Nakatsuka - Burnin' Rubber (Takeshi Nakatsuka's Re-edit) (4:35)
09. Takahiro Eguchi - Revlimit Funk (Takahiro Eguchi Remix) (4:08)
10. ESTi - Quiet Curves (ESTi Remix) (4:10)
11. Tetsukazu Nakanishi - Motor Species (20th Anniv. Mix) (5:27)
12. Q'HEY - The Objective (Q'HEY Remix) (5:00)
13. Ryu☆ - Move Me (Ryu☆Remix) (4:25)
14. Takahiro Eguchi - The Ride (Takahiro Eguchi Remix) (3:36)
15. Hiroshi Okubo - Movin' In Circles (20th Anniv. Mix) (4:12)
16. Rightside & Mark Di Meo - RIDGE RACER -one more win- (Rightside & Mark Di Meo Remix) (4:41)
-

*.log

Exact Audio Copy V1.3 from 2. September 2016
EAC extraction logfile from 21. March 2019, 19:52
Various / R4 -THE 20TH ANNIV. SOUNDS-
Used drive : HL-DT-STBD-RE WH14NS40 Adapter: 1 ID: 0
Read mode : Secure
Utilize accurate stream : Yes
Defeat audio cache : Yes
Make use of C2 pointers : No
Read offset correction : 6
Overread into Lead-In and Lead-Out : No
Fill up missing offset samples with silence : Yes
Delete leading and trailing silent blocks : No
Null samples used in CRC calculations : Yes
Used interface : Native Win32 interface for Win NT & 2000
Gap handling : Appended to previous track
Used output format : User Defined Encoder
Selected bitrate : 1024 kBit/s
Quality : High
Add ID3 tag : No
Command line compressor : C:\Program Files (x86)\Exact Audio Copy\Flac\flac.exe
Additional command line options : -8 -V -T "ARTIST=%artist%" -T "TITLE=%title%" -T "ALBUM=%albumtitle%" -T "DATE=%year%" -T "TRACKNUMBER=%tracknr%" -T "GENRE=%genre%" -T "PERFORMER=%albuminterpret%" -T "COMPOSER=%composer%" %haslyrics%--tag-from-file=LYRICS="%lyricsfile%"%haslyrics% -T "ALBUMARTIST=%albumartist%" -T "DISCNUMBER=%cdnumber%" -T "TOTALDISCS=%totalcds%" -T "TOTALTRACKS=%numtracks%" -T "COMMENT=%comment%" %source% -o %dest%
TOC of the extracted CD
Track | Start | Length | Start sector | End sector
---------------------------------------------------------
1 | 0:00.00 | 5:00.02 | 0 | 22501
2 | 5:00.02 | 5:25.35 | 22502 | 46911
3 | 10:25.37 | 4:32.21 | 46912 | 67332
4 | 14:57.58 | 5:19.48 | 67333 | 91305
5 | 20:17.31 | 5:13.21 | 91306 | 114801
6 | 25:30.52 | 4:57.68 | 114802 | 137144
7 | 30:28.45 | 6:10.08 | 137145 | 164902
8 | 36:38.53 | 4:35.18 | 164903 | 185545
9 | 41:13.71 | 4:07.68 | 185546 | 204138
10 | 45:21.64 | 4:09.53 | 204139 | 222866
11 | 49:31.42 | 5:26.42 | 222867 | 247358
12 | 54:58.09 | 5:00.22 | 247359 | 269880
13 | 59:58.31 | 4:24.67 | 269881 | 289747
14 | 64:23.23 | 3:36.29 | 289748 | 305976
15 | 67:59.52 | 4:11.60 | 305977 | 324861
16 | 72:11.37 | 4:41.06 | 324862 | 345942
Track 1
Filename D:\temp\R4 -THE 20TH ANNIV. SOUNDS-\01. Spiral Ahead (Ryo Watanabe Remix).wav
Pre-gap length 0:00:02.00
Peak level 99.8 %
Extraction speed 3.8 X
Track quality 100.0 %
Test CRC 89C21237
Copy CRC 89C21237
Track not present in AccurateRip database
Copy OK
Track 2
Filename D:\temp\R4 -THE 20TH ANNIV. SOUNDS-\02. Pearl Blue Soul (HIROSHI WATANABE Remix).wav
Pre-gap length 0:00:03.00
Peak level 98.8 %
Extraction speed 3.4 X
Track quality 100.0 %
Test CRC 9FA82118
Copy CRC 9FA82118
Track not present in AccurateRip database
Copy OK
Track 3
Filename D:\temp\R4 -THE 20TH ANNIV. SOUNDS-\03. Naked Glow (20th Anniv. Mix).wav
Pre-gap length 0:00:03.00
Peak level 99.0 %
Extraction speed 2.7 X
Track quality 100.0 %
Test CRC D41F9A58
Copy CRC D41F9A58
Track not present in AccurateRip database
Copy OK
Track 4
Filename D:\temp\R4 -THE 20TH ANNIV. SOUNDS-\04. Your Vibe (J99 Remix).wav
Pre-gap length 0:00:03.00
Peak level 98.8 %
Extraction speed 1.7 X
Track quality 100.0 %
Test CRC 2DD16E31
Copy CRC 2DD16E31
Track not present in AccurateRip database
Copy OK
Track 5
Filename D:\temp\R4 -THE 20TH ANNIV. SOUNDS-\05. Lucid Rhythms (#GadgetSwitch Remix).wav
Pre-gap length 0:00:03.00
Peak level 99.5 %
Extraction speed 1.7 X
Track quality 100.0 %
Test CRC 577E08A6
Copy CRC 577E08A6
Track not present in AccurateRip database
Copy OK
Track 6
Filename D:\temp\R4 -THE 20TH ANNIV. SOUNDS-\06. Thru (Sampling Masters MEGA Remix).wav
Pre-gap length 0:00:03.00
Peak level 99.0 %
Extraction speed 1.8 X
Track quality 100.0 %
Test CRC 9FEACEF4
Copy CRC 9FEACEF4
Track not present in AccurateRip database
Copy OK
Track 7
Filename D:\temp\R4 -THE 20TH ANNIV. SOUNDS-\07. Silhouette Dance (Sampling Masters AYA Remix).wav
Pre-gap length 0:00:03.00
Peak level 100.0 %
Extraction speed 2.0 X
Track quality 100.0 %
Test CRC B391CBA3
Copy CRC B391CBA3
Track not present in AccurateRip database
Copy OK
Track 8
Filename D:\temp\R4 -THE 20TH ANNIV. SOUNDS-\08. Burnin' Rubber (Takeshi Nakatsuka's Re-edit).wav
Pre-gap length 0:00:03.00
Peak level 98.8 %
Extraction speed 1.7 X
Track quality 99.9 %
Test CRC ED932C6F
Copy CRC ED932C6F
Track not present in AccurateRip database
Copy OK
Track 9
Filename D:\temp\R4 -THE 20TH ANNIV. SOUNDS-\09. Revlimit Funk (Takahiro Eguchi Remix).wav
Pre-gap length 0:00:03.00
Peak level 98.8 %
Extraction speed 2.0 X
Track quality 100.0 %
Test CRC D0C9F8D6
Copy CRC D0C9F8D6
Track not present in AccurateRip database
Copy OK
Track 10
Filename D:\temp\R4 -THE 20TH ANNIV. SOUNDS-\10. Quiet Curves (ESTi Remix).wav
Pre-gap length 0:00:03.00
Peak level 99.0 %
Extraction speed 2.1 X
Track quality 100.0 %
Test CRC 21F7C5C4
Copy CRC 21F7C5C4
Track not present in AccurateRip database
Copy OK
Track 11
Filename D:\temp\R4 -THE 20TH ANNIV. SOUNDS-\11. Motor Species (20th Anniv. Mix).wav
Pre-gap length 0:00:03.00
Peak level 99.2 %
Extraction speed 2.2 X
Track quality 100.0 %
Test CRC 281E9758
Copy CRC 281E9758
Track not present in AccurateRip database
Copy OK
Track 12
Filename D:\temp\R4 -THE 20TH ANNIV. SOUNDS-\12. The Objective (Q'HEY Remix).wav
Pre-gap length 0:00:03.00
Peak level 100.0 %
Extraction speed 2.3 X
Track quality 100.0 %
Test CRC 6C56560D
Copy CRC 6C56560D
Track not present in AccurateRip database
Copy OK
Track 13
Filename D:\temp\R4 -THE 20TH ANNIV. SOUNDS-\13. Move Me (Ryuв†Remix).wav
Pre-gap length 0:00:03.00
Peak level 99.6 %
Extraction speed 2.4 X
Track quality 100.0 %
Test CRC B5FE6D9A
Copy CRC B5FE6D9A
Track not present in AccurateRip database
Copy OK
Track 14
Filename D:\temp\R4 -THE 20TH ANNIV. SOUNDS-\14. The Ride (Takahiro Eguchi Remix).wav
Pre-gap length 0:00:03.00
Peak level 99.0 %
Extraction speed 2.3 X
Track quality 100.0 %
Test CRC FACF69C7
Copy CRC FACF69C7
Track not present in AccurateRip database
Copy OK
Track 15
Filename D:\temp\R4 -THE 20TH ANNIV. SOUNDS-\15. Movin' In Circles (20th Anniv. Mix).wav
Pre-gap length 0:00:03.00
Peak level 99.5 %
Extraction speed 2.5 X
Track quality 100.0 %
Test CRC 37EA8287
Copy CRC 37EA8287
Track not present in AccurateRip database
Copy OK
Track 16
Filename D:\temp\R4 -THE 20TH ANNIV. SOUNDS-\16. RIDGE RACER -one more win- (Rightside & Mark Di Meo Remix).wav
Pre-gap length 0:00:03.00
Peak level 99.0 %
Extraction speed 2.5 X
Track quality 100.0 %
Test CRC 17D66941
Copy CRC 17D66941
Track not present in AccurateRip database
Copy OK
None of the tracks are present in the AccurateRip database
No errors occurred
End of status report
---- CUETools DB Plugin V2.1.6
[CTDB TOCID: Tj5odZaswEoDTwrvWBO8vD5Z7r0-] found
Submit result: Tj5odZaswEoDTwrvWBO8vD5Z7r0- has been confirmed
Track | CTDB Status
1 | (93/93) Accurately ripped
2 | (93/93) Accurately ripped
3 | (93/93) Accurately ripped
4 | (93/93) Accurately ripped
5 | (93/93) Accurately ripped
6 | (93/93) Accurately ripped
7 | (93/93) Accurately ripped
8 | (93/93) Accurately ripped
9 | (93/93) Accurately ripped
10 | (93/93) Accurately ripped
11 | (93/93) Accurately ripped
12 | (93/93) Accurately ripped
13 | (93/93) Accurately ripped
14 | (93/93) Accurately ripped
15 | (93/93) Accurately ripped
16 | (89/93) Accurately ripped, or (2/93) differs in 2460 samples @04:40:65-04:40:67
==== Log checksum 6B82D929EADEE86862EBC8694FBB4000C4EEFD057F1550C4885647121763E370 ====

*.cue

REM GENRE Game
REM DATE 2019
REM DISCID CC120410
REM COMMENT "ExactAudioCopy v1.3"
CATALOG 4582148006794
PERFORMER "Various Artists"
TITLE "R4 -THE 20TH ANNIV. SOUNDS-"
FILE "01. Spiral Ahead (Ryo Watanabe Remix).wav" WAVE
TRACK 01 AUDIO
TITLE "Spiral Ahead (Ryo Watanabe Remix)"
PERFORMER "Ryo Watanabe"
ISRC JPG641900001
INDEX 01 00:00:00
TRACK 02 AUDIO
TITLE "Pearl Blue Soul (HIROSHI WATANABE Remix)"
PERFORMER "HIROSHI WATANABE"
ISRC JPG641900002
INDEX 00 04:57:02
FILE "02. Pearl Blue Soul (HIROSHI WATANABE Remix).wav" WAVE
INDEX 01 00:00:00
TRACK 03 AUDIO
TITLE "Naked Glow (20th Anniv. Mix)"
PERFORMER "Kohta Takahashi"
ISRC JPG641900003
INDEX 00 05:22:35
FILE "03. Naked Glow (20th Anniv. Mix).wav" WAVE
INDEX 01 00:00:00
TRACK 04 AUDIO
TITLE "Your Vibe (J99 Remix)"
PERFORMER "J99"
ISRC JPG641900004
INDEX 00 04:29:21
FILE "04. Your Vibe (J99 Remix).wav" WAVE
INDEX 01 00:00:00
TRACK 05 AUDIO
TITLE "Lucid Rhythms (#GadgetSwitch Remix)"
PERFORMER "sanodg"
ISRC JPG641900005
INDEX 00 05:16:48
FILE "05. Lucid Rhythms (#GadgetSwitch Remix).wav" WAVE
INDEX 01 00:00:00
TRACK 06 AUDIO
TITLE "Thru (Sampling Masters MEGA Remix)"
PERFORMER "Sampling Masters MEGA"
ISRC JPG641900006
INDEX 00 05:10:21
FILE "06. Thru (Sampling Masters MEGA Remix).wav" WAVE
INDEX 01 00:00:00
TRACK 07 AUDIO
TITLE "Silhouette Dance (Sampling Masters AYA Remix)"
PERFORMER "Sampling Masters AYA"
ISRC JPG641900007
INDEX 00 04:54:68
FILE "07. Silhouette Dance (Sampling Masters AYA Remix).wav" WAVE
INDEX 01 00:00:00
TRACK 08 AUDIO
TITLE "Burnin' Rubber (Takeshi Nakatsuka's Re-edit)"
PERFORMER "Takeshi Nakatsuka"
ISRC JPG641900008
INDEX 00 06:07:08
FILE "08. Burnin' Rubber (Takeshi Nakatsuka's Re-edit).wav" WAVE
INDEX 01 00:00:00
TRACK 09 AUDIO
TITLE "Revlimit Funk (Takahiro Eguchi Remix)"
PERFORMER "Takahiro Eguchi"
ISRC JPG641900009
INDEX 00 04:32:18
FILE "09. Revlimit Funk (Takahiro Eguchi Remix).wav" WAVE
INDEX 01 00:00:00
TRACK 10 AUDIO
TITLE "Quiet Curves (ESTi Remix)"
PERFORMER "ESTi"
ISRC JPG641900010
INDEX 00 04:04:68
FILE "10. Quiet Curves (ESTi Remix).wav" WAVE
INDEX 01 00:00:00
TRACK 11 AUDIO
TITLE "Motor Species (20th Anniv. Mix)"
PERFORMER "Tetsukazu Nakanishi"
ISRC JPG641900011
INDEX 00 04:06:53
FILE "11. Motor Species (20th Anniv. Mix).wav" WAVE
INDEX 01 00:00:00
TRACK 12 AUDIO
TITLE "The Objective (Q'HEY Remix)"
PERFORMER "Q'HEY"
ISRC JPG641900012
INDEX 00 05:23:42
FILE "12. The Objective (Q'HEY Remix).wav" WAVE
INDEX 01 00:00:00
TRACK 13 AUDIO
TITLE "Move Me (Ryu.Remix)"
PERFORMER "Ryu."
ISRC JPG641900013
INDEX 00 04:57:22
FILE "13. Move Me (Ryu.Remix).wav" WAVE
INDEX 01 00:00:00
TRACK 14 AUDIO
TITLE "The Ride (Takahiro Eguchi Remix)"
PERFORMER "Takahiro Eguchi"
ISRC JPG641900014
INDEX 00 04:21:67
FILE "14. The Ride (Takahiro Eguchi Remix).wav" WAVE
INDEX 01 00:00:00
TRACK 15 AUDIO
TITLE "Movin' In Circles (20th Anniv. Mix)"
PERFORMER "Hiroshi Okubo"
ISRC JPG641900015
INDEX 00 03:33:29
FILE "15. Movin' In Circles (20th Anniv. Mix).wav" WAVE
INDEX 01 00:00:00
TRACK 16 AUDIO
TITLE "RIDGE RACER -one more win- (Rightside & Mark Di Meo Remix)"
PERFORMER "Rightside & Mark Di Meo"
ISRC JPG641900016
INDEX 00 04:08:60
FILE "16. RIDGE RACER -one more win- (Rightside & Mark Di Meo Remix).wav" WAVE
INDEX 01 00:00:00

*.auCDtect

-----------------------
DON'T MODIFY THIS FILE
-----------------------
PERFORMER: auCDtect Task Manager, ver. 1.6.0 RC1 build 1.6.0.1
Copyright (c) 2008-2010 y-soft. All rights reserved
http://y-soft.org
ANALYZER: auCDtect: CD records authenticity detector, version 0.8.2
Copyright (c) 2004 Oleg Berngardt. All rights reserved.
Copyright (c) 2004 Alexander Djourik. All rights reserved.
FILE: 01. Spiral Ahead (Ryo Watanabe Remix).flac
Size: 35793247 Hash: 6E3E8B14CF1E147D923E0498D3F37E05 Accuracy: -m0
Conclusion: CDDA 100%
Signature: C58AC27C782CD9E668FA70C29E21A015AF235A04
FILE: 02. Pearl Blue Soul (HIROSHI WATANABE Remix).flac
Size: 38948421 Hash: 5F81D1DC1111C3E8B137F28A6DFCC11C Accuracy: -m0
Conclusion: ???
Signature: 64E277583D8370C03EA73BDC352526E442BBE94E
FILE: 03. Naked Glow (20th Anniv. Mix).flac
Size: 31436328 Hash: 99DDE2295BB3A0BC3B727B0451213828 Accuracy: -m0
Conclusion: CDDA 100%
Signature: C102C5C6F841BEB797BD6F71F1FA0B4FB85CEBBA
FILE: 04. Your Vibe (J99 Remix).flac
Size: 41257239 Hash: 3DE0DF2F22707A8AE96AD6C1E683F7C9 Accuracy: -m0
Conclusion: CDDA 100%
Signature: A357B6002887AE23845313210D1B7EA54C567BE8
FILE: 05. Lucid Rhythms (#GadgetSwitch Remix).flac
Size: 39234978 Hash: 5288BA162CB61E37F56E98A455DF4DA1 Accuracy: -m0
Conclusion: CDDA 100%
Signature: D2DAB3DC25C3AB4CB562351B22FAB5FD98CC25C5
FILE: 06. Thru (Sampling Masters MEGA Remix).flac
Size: 35684601 Hash: 4B88C95203562F133B8DB5234910E3F1 Accuracy: -m0
Conclusion: CDDA 100%
Signature: B62A34C967BC3D34B9E0B4D96114DDA681D2CCCE
FILE: 07. Silhouette Dance (Sampling Masters AYA Remix).flac
Size: 49047020 Hash: 3DB2C99C362EC467ED8A3C860D878E4C Accuracy: -m0
Conclusion: CDDA 99%
Signature: 25F9320FC53DA02AA227ED05BA323BB26857D969
FILE: 08. Burnin' Rubber (Takeshi Nakatsuka's Re-edit).flac
Size: 36020404 Hash: 315780FEBC23CD645E8FF0A6AFE592AC Accuracy: -m0
Conclusion: CDDA 87%
Signature: 57CCA36C9233443A5AD458D4DCDB1060616FBAAC
FILE: 09. Revlimit Funk (Takahiro Eguchi Remix).flac
Size: 27298871 Hash: C283865B83E605FF5E0029F72767870B Accuracy: -m0
Conclusion: CDDA 99%
Signature: 2A5B759D5367CB400CCA2075F6BE39D3246FB16E
FILE: 10. Quiet Curves (ESTi Remix).flac
Size: 30826248 Hash: 7A615DC7EF8E4A43BE7B051861313CDC Accuracy: -m0
Conclusion: CDDA 99%
Signature: CD7F5BE2B9E5E63069B2F797A24A81AF6A9CC246
FILE: 11. Motor Species (20th Anniv. Mix).flac
Size: 42157910 Hash: 16697CE1D5855CB1F9B2EE7FE22EAA68 Accuracy: -m0
Conclusion: CDDA 100%
Signature: 498F5660B7D6C03F58F22C4B2C0EC875715FC292
FILE: 12. The Objective (Q'HEY Remix).flac
Size: 38022180 Hash: AE29BD27C603DCB83C36AAC55B711936 Accuracy: -m0
Conclusion: CDDA 100%
Signature: BA8871F5AAFD74287915224BA8C899DA50389513
FILE: 13. Move Me (Ryu.Remix).flac
Size: 37159954 Hash: C0227A5787633EEE7786935CCC3575D6 Accuracy: -m0
Conclusion: CDDA 100%
Signature: EC7FEBBA08F4F1FDDE4B15D31FBEFF4CA4CF70F1
FILE: 14. The Ride (Takahiro Eguchi Remix).flac
Size: 30411292 Hash: B4CA2DEB88CC6F33B6DB98EC135CBC9C Accuracy: -m0
Conclusion: CDDA 100%
Signature: 47272E5AECB675E7C7C6819B83AF29AB8A71BD41
FILE: 15. Movin' In Circles (20th Anniv. Mix).flac
Size: 31222887 Hash: A8E3E199F0C756986BDBF2D874D8B956 Accuracy: -m0
Conclusion: CDDA 100%
Signature: 104C53B2CAECC5B6A63C1A22020A487AC25FE909
FILE: 16. RIDGE RACER -one more win- (Rightside & Mark Di Meo Remix).flac
Size: 36154569 Hash: 56011B765AE5A170A08EB94A0F2FCED6 Accuracy: -m0
Conclusion: CDDA 100%
Signature: 3D9A2F0A09170FF2DDE3B14759606EB88E2DA9DA

*.accurip

[CUETools log; Date: 25.03.2019 9:52:57; Version: 2.1.6]
[CTDB TOCID: Tj5odZaswEoDTwrvWBO8vD5Z7r0-] found.
Track | CTDB Status
1 | (100/100) Accurately ripped
2 | (100/100) Accurately ripped
3 | (100/100) Accurately ripped
4 | (100/100) Accurately ripped
5 | (100/100) Accurately ripped
6 | (100/100) Accurately ripped
7 | (100/100) Accurately ripped
8 | (100/100) Accurately ripped
9 | (100/100) Accurately ripped
10 | (100/100) Accurately ripped
11 | (100/100) Accurately ripped
12 | (100/100) Accurately ripped
13 | (100/100) Accurately ripped
14 | (100/100) Accurately ripped
15 | (100/100) Accurately ripped
16 | ( 95/100) Accurately ripped, or (2/100) differs in 2460 samples @04:40:65-04:40:67
[AccurateRip ID: 002e67c9-02290aee-cc120410] disk not present in database.
Track Peak [ CRC32 ] [W/O NULL] [ LOG ]
-- 100,0 [0D7D6C74] [28B480C3]
01 99,8 [89C21237] [A58BFDF4] CRC32
02 98,8 [9FA82118] [32744B03] CRC32
03 99,0 [D41F9A58] [CAECB486] CRC32
04 98,8 [2DD16E31] [5F68BC37] CRC32
05 99,5 [577E08A6] [3ECE8CF9] CRC32
06 99,0 [9FEACEF4] [8F64057B] CRC32
07 100,0 [B391CBA3] [44A22949] CRC32
08 98,8 [ED932C6F] [903912BC] CRC32
09 98,8 [D0C9F8D6] [3031D083] CRC32
10 99,0 [21F7C5C4] [0FB3662C] CRC32
11 99,2 [281E9758] [002750FB] CRC32
12 100,0 [6C56560D] [56365CCB] CRC32
13 99,6 [B5FE6D9A] [B6DABE49] CRC32
14 99,0 [FACF69C7] [BAB9D3F9] CRC32
15 99,5 [37EA8287] [2783D82C] CRC32
16 99,0 [17D66941] [DC3CA4D6] CRC32

CD2 - REMASTERED SOUNDS

01. Kohta Takahashi - Urban Fragments (1:49)
02. Hiroshi Okubo - Turn The Page (1:29)
03. Hiroshi Okubo - On Your Way (2:03)
04. Asuka Sakai - Garage Talk (2:51)
05. Hiroshi Okubo - Spiral Ahead (1:56)
06. Hiroshi Okubo - Pearl Blue Soul (3:38)
07. Kohta Takahashi - Naked Glow (3:50)
08. Asuka Sakai - Your Vibe (3:53)
09. Tetsukazu Nakanishi - Lucid Rhythms (3:46)
10. Koji Nakagawa - Thru (3:39)
11. Asuka Sakai - Silhouette Dance (3:30)
12. Hiroshi Okubo - Burnin' Rubber (3:19)
13. Kohta Takahashi - Revlimit Funk (3:26)
14. Hiroshi Okubo/Asuka Sakai - Quiet Curves (3:31)
15. Tetsukazu Nakanishi - Motor Species (4:07)
16. Koji Nakagawa - The Objective (4:31)
17. Kohta Takahashi - Move Me (4:33)
18. Kohta Takahashi - The Ride (3:30)
19. Hiroshi Okubo - Movin' In Circles (4:19)
20. Asuka Sakai - The Parade (1:47)
21. Asuka Sakai - Epilogue (1:01)
22. Hiroshi Okubo - RIDGE RACER -one more win- (3:26)
23. Hiroshi Okubo - Ready To Roll! (0:18)
24. Hiroshi Okubo - Party's Over (0:09)
25. Hiroshi Okubo - Eat'em Up! (3:36)
-

*.log

Exact Audio Copy V1.3 from 2. September 2016
EAC extraction logfile from 21. March 2019, 21:23
Various / R4 -THE 20TH ANNIV. SOUNDS-
Used drive : HL-DT-STBD-RE WH14NS40 Adapter: 1 ID: 0
Read mode : Secure
Utilize accurate stream : Yes
Defeat audio cache : Yes
Make use of C2 pointers : No
Read offset correction : 6
Overread into Lead-In and Lead-Out : No
Fill up missing offset samples with silence : Yes
Delete leading and trailing silent blocks : No
Null samples used in CRC calculations : Yes
Used interface : Native Win32 interface for Win NT & 2000
Gap handling : Appended to previous track
Used output format : User Defined Encoder
Selected bitrate : 1024 kBit/s
Quality : High
Add ID3 tag : No
Command line compressor : C:\Program Files (x86)\Exact Audio Copy\Flac\flac.exe
Additional command line options : -8 -V -T "ARTIST=%artist%" -T "TITLE=%title%" -T "ALBUM=%albumtitle%" -T "DATE=%year%" -T "TRACKNUMBER=%tracknr%" -T "GENRE=%genre%" -T "PERFORMER=%albuminterpret%" -T "COMPOSER=%composer%" %haslyrics%--tag-from-file=LYRICS="%lyricsfile%"%haslyrics% -T "ALBUMARTIST=%albumartist%" -T "DISCNUMBER=%cdnumber%" -T "TOTALDISCS=%totalcds%" -T "TOTALTRACKS=%numtracks%" -T "COMMENT=%comment%" %source% -o %dest%
TOC of the extracted CD
Track | Start | Length | Start sector | End sector
---------------------------------------------------------
1 | 0:00.00 | 1:48.55 | 0 | 8154
2 | 1:48.55 | 1:29.13 | 8155 | 14842
3 | 3:17.68 | 2:03.30 | 14843 | 24097
4 | 5:21.23 | 2:50.59 | 24098 | 36906
5 | 8:12.07 | 1:55.74 | 36907 | 45605
6 | 10:08.06 | 3:37.71 | 45606 | 61951
7 | 13:46.02 | 3:49.48 | 61952 | 79174
8 | 17:35.50 | 3:53.37 | 79175 | 96686
9 | 21:29.12 | 3:46.32 | 96687 | 113668
10 | 25:15.44 | 3:39.31 | 113669 | 130124
11 | 28:55.00 | 3:30.11 | 130125 | 145885
12 | 32:25.11 | 3:19.07 | 145886 | 160817
13 | 35:44.18 | 3:25.51 | 160818 | 176243
14 | 39:09.69 | 3:31.23 | 176244 | 192091
15 | 42:41.17 | 4:06.60 | 192092 | 210601
16 | 46:48.02 | 4:30.48 | 210602 | 230899
17 | 51:18.50 | 4:32.43 | 230900 | 251342
18 | 55:51.18 | 3:30.16 | 251343 | 267108
19 | 59:21.34 | 4:18.46 | 267109 | 286504
20 | 63:40.05 | 1:46.67 | 286505 | 294521
21 | 65:26.72 | 1:01.23 | 294522 | 299119
22 | 66:28.20 | 3:25.60 | 299120 | 314554
23 | 69:54.05 | 0:18.33 | 314555 | 315937
24 | 70:12.38 | 0:09.32 | 315938 | 316644
25 | 70:21.70 | 3:36.04 | 316645 | 332848
Track 1
Filename D:\temp\R4 -THE 20TH ANNIV. SOUNDS- CD2\01. Urban Fragments.wav
Pre-gap length 0:00:02.00
Peak level 99.9 %
Extraction speed 1.6 X
Track quality 100.0 %
Test CRC D3E9CD07
Copy CRC D3E9CD07
Track not present in AccurateRip database
Copy OK
Track 2
Filename D:\temp\R4 -THE 20TH ANNIV. SOUNDS- CD2\02. Turn The Page.wav
Pre-gap length 0:00:00.42
Peak level 99.9 %
Extraction speed 0.9 X
Track quality 100.0 %
Test CRC 68709E93
Copy CRC 68709E93
Track not present in AccurateRip database
Copy OK
Track 3
Filename D:\temp\R4 -THE 20TH ANNIV. SOUNDS- CD2\03. On Your Way.wav
Pre-gap length 0:00:00.42
Peak level 99.9 %
Extraction speed 1.1 X
Track quality 100.0 %
Test CRC A602C162
Copy CRC A602C162
Track not present in AccurateRip database
Copy OK
Track 4
Filename D:\temp\R4 -THE 20TH ANNIV. SOUNDS- CD2\04. Garage Talk.wav
Pre-gap length 0:00:00.42
Peak level 100.0 %
Extraction speed 1.2 X
Track quality 100.0 %
Test CRC 268F7B15
Copy CRC 268F7B15
Track not present in AccurateRip database
Copy OK
Track 5
Filename D:\temp\R4 -THE 20TH ANNIV. SOUNDS- CD2\05. Spiral Ahead.wav
Pre-gap length 0:00:00.42
Peak level 100.0 %
Extraction speed 1.2 X
Track quality 100.0 %
Test CRC C87CC417
Copy CRC C87CC417
Track not present in AccurateRip database
Copy OK
Track 6
Filename D:\temp\R4 -THE 20TH ANNIV. SOUNDS- CD2\06. Pearl Blue Soul.wav
Pre-gap length 0:00:00.42
Peak level 100.0 %
Extraction speed 1.4 X
Track quality 100.0 %
Test CRC BC4DDF11
Copy CRC BC4DDF11
Track not present in AccurateRip database
Copy OK
Track 7
Filename D:\temp\R4 -THE 20TH ANNIV. SOUNDS- CD2\07. Naked Glow.wav
Pre-gap length 0:00:00.42
Peak level 99.9 %
Extraction speed 1.5 X
Track quality 100.0 %
Test CRC 3E7EB64D
Copy CRC 3E7EB64D
Track not present in AccurateRip database
Copy OK
Track 8
Filename D:\temp\R4 -THE 20TH ANNIV. SOUNDS- CD2\08. Your Vibe.wav
Pre-gap length 0:00:00.25
Peak level 99.9 %
Extraction speed 1.6 X
Track quality 100.0 %
Test CRC BD561EF3
Copy CRC BD561EF3
Track not present in AccurateRip database
Copy OK
Track 9
Filename D:\temp\R4 -THE 20TH ANNIV. SOUNDS- CD2\09. Lucid Rhythms.wav
Pre-gap length 0:00:00.25
Peak level 100.0 %
Extraction speed 1.4 X
Track quality 99.9 %
Test CRC 6522758B
Copy CRC 6522758B
Track not present in AccurateRip database
Copy OK
Track 10
Filename D:\temp\R4 -THE 20TH ANNIV. SOUNDS- CD2\10. Thru.wav
Pre-gap length 0:00:00.25
Peak level 99.9 %
Extraction speed 1.7 X
Track quality 100.0 %
Test CRC 44236B08
Copy CRC 44236B08
Track not present in AccurateRip database
Copy OK
Track 11
Filename D:\temp\R4 -THE 20TH ANNIV. SOUNDS- CD2\11. Silhouette Dance.wav
Pre-gap length 0:00:00.25
Peak level 99.9 %
Extraction speed 1.5 X
Track quality 99.9 %
Test CRC B80B8CF1
Copy CRC B80B8CF1
Track not present in AccurateRip database
Copy OK
Track 12
Filename D:\temp\R4 -THE 20TH ANNIV. SOUNDS- CD2\12. Burnin' Rubber.wav
Pre-gap length 0:00:00.25
Peak level 99.9 %
Extraction speed 1.8 X
Track quality 100.0 %
Test CRC 421EF972
Copy CRC 421EF972
Track not present in AccurateRip database
Copy OK
Track 13
Filename D:\temp\R4 -THE 20TH ANNIV. SOUNDS- CD2\13. Revlimit Funk.wav
Pre-gap length 0:00:00.25
Peak level 99.9 %
Extraction speed 1.9 X
Track quality 100.0 %
Test CRC 36A2DE1B
Copy CRC 36A2DE1B
Track not present in AccurateRip database
Copy OK
Track 14
Filename D:\temp\R4 -THE 20TH ANNIV. SOUNDS- CD2\14. Quiet Curves.wav
Pre-gap length 0:00:00.25
Peak level 100.0 %
Extraction speed 2.0 X
Track quality 100.0 %
Test CRC 558886C4
Copy CRC 558886C4
Track not present in AccurateRip database
Copy OK
Track 15
Filename D:\temp\R4 -THE 20TH ANNIV. SOUNDS- CD2\15. Motor Species.wav
Pre-gap length 0:00:00.25
Peak level 100.0 %
Extraction speed 2.0 X
Track quality 100.0 %
Test CRC 23FBDA69
Copy CRC 23FBDA69
Track not present in AccurateRip database
Copy OK
Track 16
Filename D:\temp\R4 -THE 20TH ANNIV. SOUNDS- CD2\16. The Objective.wav
Pre-gap length 0:00:00.25
Peak level 100.0 %
Extraction speed 2.1 X
Track quality 100.0 %
Test CRC B45CF539
Copy CRC B45CF539
Track not present in AccurateRip database
Copy OK
Track 17
Filename D:\temp\R4 -THE 20TH ANNIV. SOUNDS- CD2\17. Move Me.wav
Pre-gap length 0:00:00.25
Peak level 100.0 %
Extraction speed 2.0 X
Track quality 99.9 %
Test CRC 5931AB6E
Copy CRC 5931AB6E
Track not present in AccurateRip database
Copy OK
Track 18
Filename D:\temp\R4 -THE 20TH ANNIV. SOUNDS- CD2\18. The Ride.wav
Pre-gap length 0:00:00.25
Peak level 99.9 %
Extraction speed 2.2 X
Track quality 100.0 %
Test CRC 8E3D17C6
Copy CRC 8E3D17C6
Track not present in AccurateRip database
Copy OK
Track 19
Filename D:\temp\R4 -THE 20TH ANNIV. SOUNDS- CD2\19. Movin' In Circles.wav
Pre-gap length 0:00:00.25
Peak level 100.0 %
Extraction speed 2.0 X
Track quality 99.9 %
Test CRC 71A7ED8A
Copy CRC 71A7ED8A
Track not present in AccurateRip database
Copy OK
Track 20
Filename D:\temp\R4 -THE 20TH ANNIV. SOUNDS- CD2\20. The Parade.wav
Pre-gap length 0:00:00.25
Peak level 100.0 %
Extraction speed 1.5 X
Track quality 99.9 %
Test CRC 2C731D06
Copy CRC 2C731D06
Track not present in AccurateRip database
Copy OK
Track 21
Filename D:\temp\R4 -THE 20TH ANNIV. SOUNDS- CD2\21. Epilogue.wav
Pre-gap length 0:00:00.25
Peak level 67.4 %
Extraction speed 1.7 X
Track quality 100.0 %
Test CRC B56D1126
Copy CRC B56D1126
Track not present in AccurateRip database
Copy OK
Track 22
Filename D:\temp\R4 -THE 20TH ANNIV. SOUNDS- CD2\22. RIDGE RACER -one more win-.wav
Pre-gap length 0:00:00.25
Peak level 100.0 %
Extraction speed 2.3 X
Track quality 100.0 %
Test CRC 7EE01EB9
Copy CRC 7EE01EB9
Track not present in AccurateRip database
Copy OK
Track 23
Filename D:\temp\R4 -THE 20TH ANNIV. SOUNDS- CD2\23. Ready To Roll!.wav
Pre-gap length 0:00:00.25
Peak level 100.0 %
Extraction speed 0.9 X
Track quality 100.0 %
Test CRC ECF15838
Copy CRC ECF15838
Track not present in AccurateRip database
Copy OK
Track 24
Filename D:\temp\R4 -THE 20TH ANNIV. SOUNDS- CD2\24. Party's Over.wav
Pre-gap length 0:00:00.25
Peak level 99.8 %
Extraction speed 0.5 X
Track quality 100.0 %
Test CRC 80571D2B
Copy CRC 80571D2B
Track not present in AccurateRip database
Copy OK
Track 25
Filename D:\temp\R4 -THE 20TH ANNIV. SOUNDS- CD2\25. Eat'em Up!.wav
Pre-gap length 0:00:00.25
Peak level 100.0 %
Extraction speed 2.4 X
Track quality 100.0 %
Test CRC DDC06042
Copy CRC DDC06042
Track not present in AccurateRip database
Copy OK
None of the tracks are present in the AccurateRip database
No errors occurred
End of status report
---- CUETools DB Plugin V2.1.6
[CTDB TOCID: .ID3BR1HpoIJWygzbRetOv_9eC8-] found
Submit result: .ID3BR1HpoIJWygzbRetOv_9eC8- has been confirmed
Track | CTDB Status
1 | ( 58/110) Accurately ripped
2 | ( 58/110) Accurately ripped
3 | ( 58/110) Accurately ripped
4 | ( 58/110) Accurately ripped
5 | ( 58/110) Accurately ripped
6 | ( 58/110) Accurately ripped
7 | ( 58/110) Accurately ripped
8 | ( 58/110) Accurately ripped
9 | ( 58/110) Accurately ripped
10 | ( 58/110) Accurately ripped
11 | ( 58/110) Accurately ripped
12 | ( 58/110) Accurately ripped
13 | ( 58/110) Accurately ripped
14 | ( 58/110) Accurately ripped
15 | ( 58/110) Accurately ripped
16 | ( 58/110) Accurately ripped
17 | ( 58/110) Accurately ripped
18 | ( 58/110) Accurately ripped
19 | ( 58/110) Accurately ripped
20 | ( 58/110) Accurately ripped
21 | ( 58/110) Accurately ripped
22 | ( 58/110) Accurately ripped
23 | ( 58/110) Accurately ripped
24 | ( 58/110) Accurately ripped
25 | ( 52/110) Accurately ripped, or (3/110) differs in 6019 samples @03:35:54-03:35:59, or (2/110) differs in 204 samples @03:35:59
==== Log checksum 9AFA543666D3D5A30861F6E4CF8514DD395F291E3C3837EDAFDD81BA96DEDC9E ====

*.cue

REM GENRE Game
REM DATE 2019
REM DISCID 5A115519
REM COMMENT "ExactAudioCopy v1.3"
CATALOG 4582148006794
PERFORMER "Various Artists"
TITLE "R4 -THE 20TH ANNIV. SOUNDS-"
FILE "01. Urban Fragments.wav" WAVE
TRACK 01 AUDIO
TITLE "Urban Fragments"
PERFORMER "Kohta Takahashi"
ISRC JPG641900017
INDEX 01 00:00:00
TRACK 02 AUDIO
TITLE "Turn The Page"
PERFORMER "Hiroshi Okubo"
ISRC JPG641900018
INDEX 00 01:48:23
FILE "02. Turn The Page.wav" WAVE
INDEX 01 00:00:00
TRACK 03 AUDIO
TITLE "On Your Way"
PERFORMER "Hiroshi Okubo"
ISRC JPG641900019
INDEX 00 01:28:56
FILE "03. On Your Way.wav" WAVE
INDEX 01 00:00:00
TRACK 04 AUDIO
TITLE "Garage Talk"
PERFORMER "Asuka Sakai"
ISRC JPG641900020
INDEX 00 02:02:73
FILE "04. Garage Talk.wav" WAVE
INDEX 01 00:00:00
TRACK 05 AUDIO
TITLE "Spiral Ahead"
PERFORMER "Hiroshi Okubo"
ISRC JPG641900021
INDEX 00 02:50:27
FILE "05. Spiral Ahead.wav" WAVE
INDEX 01 00:00:00
TRACK 06 AUDIO
TITLE "Pearl Blue Soul"
PERFORMER "Hiroshi Okubo"
ISRC JPG641900022
INDEX 00 01:55:42
FILE "06. Pearl Blue Soul.wav" WAVE
INDEX 01 00:00:00
TRACK 07 AUDIO
TITLE "Naked Glow"
PERFORMER "Kohta Takahashi"
ISRC JPG641900023
INDEX 00 03:37:39
FILE "07. Naked Glow.wav" WAVE
INDEX 01 00:00:00
TRACK 08 AUDIO
TITLE "Your Vibe"
PERFORMER "Asuka Sakai"
ISRC JPG641900024
INDEX 00 03:49:29
FILE "08. Your Vibe.wav" WAVE
INDEX 01 00:00:00
TRACK 09 AUDIO
TITLE "Lucid Rhythms"
PERFORMER "Tetsukazu Nakanishi"
ISRC JPG641900025
INDEX 00 03:53:18
FILE "09. Lucid Rhythms.wav" WAVE
INDEX 01 00:00:00
TRACK 10 AUDIO
TITLE "Thru"
PERFORMER "Koji Nakagawa"
ISRC JPG641900026
INDEX 00 03:46:13
FILE "10. Thru.wav" WAVE
INDEX 01 00:00:00
TRACK 11 AUDIO
TITLE "Silhouette Dance"
PERFORMER "Asuka Sakai"
ISRC JPG641900027
INDEX 00 03:39:12
FILE "11. Silhouette Dance.wav" WAVE
INDEX 01 00:00:00
TRACK 12 AUDIO
TITLE "Burnin' Rubber"
PERFORMER "Hiroshi Okubo"
ISRC JPG641900028
INDEX 00 03:29:67
FILE "12. Burnin' Rubber.wav" WAVE
INDEX 01 00:00:00
TRACK 13 AUDIO
TITLE "Revlimit Funk"
PERFORMER "Kohta Takahashi"
ISRC JPG641900029
INDEX 00 03:18:63
FILE "13. Revlimit Funk.wav" WAVE
INDEX 01 00:00:00
TRACK 14 AUDIO
TITLE "Quiet Curves"
PERFORMER "Hiroshi Okubo/Asuka Sakai"
ISRC JPG641900030
INDEX 00 03:25:32
FILE "14. Quiet Curves.wav" WAVE
INDEX 01 00:00:00
TRACK 15 AUDIO
TITLE "Motor Species"
PERFORMER "Tetsukazu Nakanishi"
ISRC JPG641900031
INDEX 00 03:31:04
FILE "15. Motor Species.wav" WAVE
INDEX 01 00:00:00
TRACK 16 AUDIO
TITLE "The Objective"
PERFORMER "Koji Nakagawa"
ISRC JPG641900032
INDEX 00 04:06:41
FILE "16. The Objective.wav" WAVE
INDEX 01 00:00:00
TRACK 17 AUDIO
TITLE "Move Me"
PERFORMER "Kohta Takahashi"
ISRC JPG641900033
INDEX 00 04:30:29
FILE "17. Move Me.wav" WAVE
INDEX 01 00:00:00
TRACK 18 AUDIO
TITLE "The Ride"
PERFORMER "Kohta Takahashi"
ISRC JPG641900034
INDEX 00 04:32:24
FILE "18. The Ride.wav" WAVE
INDEX 01 00:00:00
TRACK 19 AUDIO
TITLE "Movin' In Circles"
PERFORMER "Hiroshi Okubo"
ISRC JPG641900035
INDEX 00 03:29:72
FILE "19. Movin' In Circles.wav" WAVE
INDEX 01 00:00:00
TRACK 20 AUDIO
TITLE "The Parade"
PERFORMER "Asuka Sakai"
ISRC JPG641900036
INDEX 00 04:18:27
FILE "20. The Parade.wav" WAVE
INDEX 01 00:00:00
TRACK 21 AUDIO
TITLE "Epilogue"
PERFORMER "Asuka Sakai"
ISRC JPG641900037
INDEX 00 01:46:48
FILE "21. Epilogue.wav" WAVE
INDEX 01 00:00:00
TRACK 22 AUDIO
TITLE "RIDGE RACER -one more win-"
PERFORMER "Hiroshi Okubo"
ISRC JPG641900038
INDEX 00 01:01:04
FILE "22. RIDGE RACER -one more win-.wav" WAVE
INDEX 01 00:00:00
TRACK 23 AUDIO
TITLE "Ready To Roll!"
PERFORMER "Hiroshi Okubo"
ISRC JPG641900039
INDEX 00 03:25:41
FILE "23. Ready To Roll!.wav" WAVE
INDEX 01 00:00:00
TRACK 24 AUDIO
TITLE "Party's Over"
PERFORMER "Hiroshi Okubo"
ISRC JPG641900040
INDEX 00 00:18:14
FILE "24. Party's Over.wav" WAVE
INDEX 01 00:00:00
TRACK 25 AUDIO
TITLE "Eat'em Up!"
PERFORMER "Hiroshi Okubo"
ISRC JPG641900041
INDEX 00 00:09:13
FILE "25. Eat'em Up!.wav" WAVE
INDEX 01 00:00:00

*.auCDtect

-----------------------
DON'T MODIFY THIS FILE
-----------------------
PERFORMER: auCDtect Task Manager, ver. 1.6.0 RC1 build 1.6.0.1
Copyright (c) 2008-2010 y-soft. All rights reserved
http://y-soft.org
ANALYZER: auCDtect: CD records authenticity detector, version 0.8.2
Copyright (c) 2004 Oleg Berngardt. All rights reserved.
Copyright (c) 2004 Alexander Djourik. All rights reserved.
FILE: 01. Urban Fragments.flac
Size: 11778429 Hash: 250E0526228B8E8CB93DF8DE18A120CB Accuracy: -m0
Conclusion: CDDA 100%
Signature: D64694712FAFD3E4E1D8D34AF9048F54655352B3
FILE: 02. Turn The Page.flac
Size: 10465887 Hash: 835FDAEDE65124A7548A8B34E633613E Accuracy: -m0
Conclusion: CDDA 100%
Signature: 80F0C0696D0CDA00BD7360AD4A142CA1F9DDFBA9
FILE: 03. On Your Way.flac
Size: 9112917 Hash: 97A6CA1374C65714A0B10AAB8D24952C Accuracy: -m0
Conclusion: CDDA 100%
Signature: 029C9C906B2C24CD7200772AC8C999A8500FCA10
FILE: 04. Garage Talk.flac
Size: 16251147 Hash: 277BBEEBC09A7F24499D0A3E6C9D1DAC Accuracy: -m0
Conclusion: CDDA 100%
Signature: B2D607F4814D2D6A48AFC521FEB889FE1B229F8E
FILE: 05. Spiral Ahead.flac
Size: 13653877 Hash: DD62C5F8E52FC59C46D51699E0DBC70B Accuracy: -m0
Conclusion: CDDA 100%
Signature: B5B42B6BB763D2D070424DB383F8F1F24D23C86D
FILE: 06. Pearl Blue Soul.flac
Size: 27462552 Hash: 02879D26314A5034D8DAF787D4EE5351 Accuracy: -m0
Conclusion: CDDA 100%
Signature: A698EA38F135419103E75D83C04837DD5DA66B33
FILE: 07. Naked Glow.flac
Size: 25725063 Hash: 2548C9117CEA2FF115D32708983ACEAD Accuracy: -m0
Conclusion: CDDA 100%
Signature: 9729434FFFF872FEBEC32627346DB39EE313A986
FILE: 08. Your Vibe.flac
Size: 26709452 Hash: 03996E441C236AAB8AF0E00A7896FEA9 Accuracy: -m0
Conclusion: CDDA 100%
Signature: 3E8F4D1AF9FB5F9407F3EE710B0011C5FA71536A
FILE: 09. Lucid Rhythms.flac
Size: 26950356 Hash: FCF0CD23D8A1BCBE8C0A18D9B6E81908 Accuracy: -m0
Conclusion: CDDA 100%
Signature: B7D1811AF8D4E27B45FC2EC131D160A9980D995F
FILE: 10. Thru.flac
Size: 22245060 Hash: AA3D333C212E031C3C15F5B14EBF64AA Accuracy: -m0
Conclusion: CDDA 100%
Signature: 1EA0BD84FF88B8C5CF861B5BD2A53265DCEA148F
FILE: 11. Silhouette Dance.flac
Size: 24294535 Hash: 2CF8E3F76B2D66C96CA64B338F3D024D Accuracy: -m0
Conclusion: CDDA 100%
Signature: 69A5EF9114887CFA9631A149A1994289A56F2EED
FILE: 12. Burnin' Rubber.flac
Size: 23844524 Hash: 053BE40A35A8C9F135D5D1529CB612F8 Accuracy: -m0
Conclusion: CDDA 100%
Signature: 8CA387CD36A43DD8ABFAA73DB84626FA77416E91
FILE: 13. Revlimit Funk.flac
Size: 26325266 Hash: 1EE5BE105995140DABD4A168CEEC3B4B Accuracy: -m0
Conclusion: CDDA 100%
Signature: B8FF41E0F4F5C93D06561C8198E43C1FF66DE8DB
FILE: 14. Quiet Curves.flac
Size: 25222063 Hash: B0A87BCADBD5819486DAAA29A6840772 Accuracy: -m0
Conclusion: CDDA 99%
Signature: 4927E9FC99CA95CB1EF8D506BED41E83D17B0E36
FILE: 15. Motor Species.flac
Size: 31496936 Hash: 4E9B0EE6CB1FA59721AB45212FB8AED8 Accuracy: -m0
Conclusion: CDDA 100%
Signature: 24FF07AD4317C77F0061E7D46476F60237268E8B
FILE: 16. The Objective.flac
Size: 28959218 Hash: DF2AF0D5FDBBE2A4BA726720C3C82174 Accuracy: -m0
Conclusion: CDDA 100%
Signature: 19343EF972567616CEAE3CE91B81FD5F16F1F19E
FILE: 17. Move Me.flac
Size: 35590426 Hash: A4A1321D9E23D09E28A19D4FDAAD6E3F Accuracy: -m0
Conclusion: CDDA 100%
Signature: 329873228211E569E2465C5E7CF3C7ABD3B4774C
FILE: 18. The Ride.flac
Size: 27053722 Hash: 7B46941F418B8812CEB7FBC9707B2621 Accuracy: -m0
Conclusion: CDDA 100%
Signature: 5A65FEE50063EA32D6A99D1C8D893EAA6582FB1C
FILE: 19. Movin' In Circles.flac
Size: 28612311 Hash: CC3DFC15B82D8B99512F0C0A93169F13 Accuracy: -m0
Conclusion: CDDA 100%
Signature: FF7CB0D8210A85D3692BBED1BCFAD3F201E1386A
FILE: 20. The Parade.flac
Size: 13604960 Hash: A5D51F5B4890AE403AAAD4BFE7AADA0B Accuracy: -m0
Conclusion: CDDA 100%
Signature: D78A9D8859505E7D20A1CB78EAD2DE0DD41A4FE0
FILE: 21. Epilogue.flac
Size: 5470191 Hash: 33708ABB14095D0E12058E05F22D06CB Accuracy: -m0
Conclusion: CDDA 86%
Signature: 8CE759DE2D16EE44A0F1E7CF4DBC70E0F2C617CA
FILE: 22. RIDGE RACER -one more win-.flac
Size: 24576322 Hash: B925A67BF503EAE0949EAC934518A6C2 Accuracy: -m0
Conclusion: CDDA 100%
Signature: F83A31144C36AF95958E750133A5A93F7BFAB237
FILE: 23. Ready To Roll!.flac
Size: 2292747 Hash: 6548506C651BB8F39BE91AF22AA59E80 Accuracy: -m0
Conclusion: CDDA 100%
Signature: 357F1A261F1A9F76CD1607DDD1000C1FCA41BB5B
FILE: 24. Party's Over.flac
Size: 860419 Hash: FD750C104D248FC48671533C01A2F624 Accuracy: -m0
Conclusion: CDDA 100%
Signature: 3868CBC43AB7A4CA8B0E8D055EB48382ABFB1767
FILE: 25. Eat'em Up!.flac
Size: 26255113 Hash: 05247D3AF5DA19CE6D325839571725FC Accuracy: -m0
Conclusion: CDDA 100%
Signature: 6C82B26E247FDEEF68F2BC36214996C3B25D6B0D

*.accurip

[CUETools log; Date: 25.03.2019 10:47:26; Version: 2.1.6]
[CTDB TOCID: .ID3BR1HpoIJWygzbRetOv_9eC8-] found.
Track | CTDB Status
1 | ( 65/117) Accurately ripped
2 | ( 65/117) Accurately ripped
3 | ( 65/117) Accurately ripped
4 | ( 65/117) Accurately ripped
5 | ( 65/117) Accurately ripped
6 | ( 65/117) Accurately ripped
7 | ( 65/117) Accurately ripped
8 | ( 65/117) Accurately ripped
9 | ( 65/117) Accurately ripped
10 | ( 65/117) Accurately ripped
11 | ( 65/117) Accurately ripped
12 | ( 65/117) Accurately ripped
13 | ( 65/117) Accurately ripped
14 | ( 65/117) Accurately ripped
15 | ( 65/117) Accurately ripped
16 | ( 65/117) Accurately ripped
17 | ( 65/117) Accurately ripped
18 | ( 65/117) Accurately ripped
19 | ( 65/117) Accurately ripped
20 | ( 65/117) Accurately ripped
21 | ( 65/117) Accurately ripped
22 | ( 65/117) Accurately ripped
23 | ( 65/117) Accurately ripped
24 | ( 65/117) Accurately ripped
25 | ( 59/117) Accurately ripped, or (3/117) differs in 6019 samples @03:35:54-03:35:59, or (2/117) differs in 204 samples @03:35:59
[AccurateRip ID: 00433c49-04d54e84-5a115519] disk not present in database.
Track Peak [ CRC32 ] [W/O NULL] [ LOG ]
-- 100,0 [421793D5] [F8D614CB]
01 99,9 [D3E9CD07] [5AB70D41] CRC32
02 99,9 [68709E93] [AD667E6F] CRC32
03 99,9 [A602C162] [4CDB6945] CRC32
04 100,0 [268F7B15] [848A6C17] CRC32
05 100,0 [C87CC417] [94A7D512] CRC32
06 100,0 [BC4DDF11] [564F4B4F] CRC32
07 99,9 [3E7EB64D] [807E83A6] CRC32
08 99,9 [BD561EF3] [D8A7E509] CRC32
09 100,0 [6522758B] [A0990DC3] CRC32
10 99,9 [44236B08] [13B019C1] CRC32
11 99,9 [B80B8CF1] [6CB2E15B] CRC32
12 99,9 [421EF972] [682445DE] CRC32
13 99,9 [36A2DE1B] [C17AABFB] CRC32
14 100,0 [558886C4] [1521919C] CRC32
15 100,0 [23FBDA69] [5F607D5F] CRC32
16 100,0 [B45CF539] [2BDC7C2E] CRC32
17 100,0 [5931AB6E] [610DB367] CRC32
18 99,9 [8E3D17C6] [B05BF92B] CRC32
19 100,0 [71A7ED8A] [900FCC14] CRC32
20 100,0 [2C731D06] [614BE968] CRC32
21 67,4 [B56D1126] [2A51BED2] CRC32
22 100,0 [7EE01EB9] [A25A1D5B] CRC32
23 100,0 [ECF15838] [62A7EA9C] CRC32
24 99,8 [80571D2B] [7F43E9CB] CRC32
25 100,0 [DDC06042] [539B3AB9] CRC32
[torrents24.ru].t79103.torrent 
Торрент: Зарегистрирован [ 2019-03-27 16:35 ] · 3408622167436D88ABAA99BEA52BF6E01770802F

Скачать .torrent

Скачать

15 KB

Статус: проверено
Скачан: 1 раз
Размер: 1,02 GB
terms.php
[Профиль] [ЛС]
Показать сообщения:    
Ответить на тему

Текущее время: 23-Апр 03:07

Часовой пояс: UTC + 3



Вы не можете начинать темы
Вы не можете отвечать на сообщения
Вы не можете редактировать свои сообщения
Вы не можете удалять свои сообщения
Вы не можете голосовать в опросах
Вы не можете прикреплять файлы к сообщениям
Вы можете скачивать файлы
buy generic cialis canadian pharmacy

Интересное в сети