(Punk, Surf, Trash) [CD] Messer Chups - Mondo Harp - 2019, FLAC (tracks+.cue), lossless

Ответить на тему
Статистика раздачи
Размер:  218 MB   |    Зарегистрирован:  2 месяца 28 дней   |    Скачан:  2 раза

Полного источника не было: 2 месяца 23 дня

 
   
 
 
Автор Сообщение

mafil ®

Пол: Не указан

Стаж: 1 год 3 месяца

Сообщений: 105

Создавать темы 19-Мар-2019 16:04

[Цитировать]

Messer Chups / Mondo Harp
Жанр: Punk, Surf, Trash
Носитель: CD
Год издания: 2019
Издатель (лейбл): Gitarcula records
Страна исполнителя (группы): Россия
Аудиокодек: FLAC (*.flac)
Тип рипа: tracks+.cue
Битрейт аудио: lossless
Продолжительность: 00:36:49
Источник: интернет (RED)
Наличие сканов в содержимом раздачи: нет
Треклист:
01. Humanica [2:19]
02. Green Flippers [2:40]
03. Love is a Magical Things [3:09]
04. The Cruse of Catzilla [3:11]
05. Das Boot [3:02]
06. Mignight Call [3:06]
07. Siberiada [2:35]
08. Agent Horrifica [2:25]
09. House of Exorcisme [2:43]
10. Gloomy Boy [2:14]
11. Padre Pizzicato [3:16]
12. The World we Knew [2:29]
13. Twin Peaks Twist [3:40]

Лог создания рипа

Exact Audio Copy V1.3 from 2. September 2016
EAC extraction logfile from 17. March 2019, 0:55
Messer Chups / Mondo Harp
Used drive : Optiarc DVD RW AD-7200S Adapter: 1 ID: 0
Read mode : Secure
Utilize accurate stream : Yes
Defeat audio cache : Yes
Make use of C2 pointers : No
Read offset correction : 48
Overread into Lead-In and Lead-Out : No
Fill up missing offset samples with silence : Yes
Delete leading and trailing silent blocks : No
Null samples used in CRC calculations : Yes
Used interface : Native Win32 interface for Win NT & 2000
Gap handling : Appended to previous track
Used output format : User Defined Encoder
Selected bitrate : 1024 kBit/s
Quality : High
Add ID3 tag : No
Command line compressor : C:\Program Files\Exact Audio Copy\Flac\flac.exe
Additional command line options : -8 -e -p -V -T "ARTIST=%artist%" -T "TITLE=%title%" -T "ALBUM=%albumtitle%" -T "DATE=%year%" -T "TRACKNUMBER=%tracknr%" -T "GENRE=%genre%" -T "PERFORMER=%albuminterpret%" -T "COMPOSER=%composer%" %haslyrics%--tag-from-file=LYRICS="%lyricsfile%"%haslyrics% -T "ALBUMARTIST=%albumartist%" -T "DISCNUMBER=%cdnumber%" -T "TOTALDISCS=%totalcds%" -T "TOTALTRACKS=%numtracks%" -T "COMMENT=%comment%" %source% -o %dest%
TOC of the extracted CD
Track | Start | Length | Start sector | End sector
---------------------------------------------------------
1 | 0:00.00 | 2:19.01 | 0 | 10425
2 | 2:19.01 | 2:40.65 | 10426 | 22490
3 | 4:59.66 | 3:09.15 | 22491 | 36680
4 | 8:09.06 | 3:11.17 | 36681 | 51022
5 | 11:20.23 | 3:02.61 | 51023 | 64733
6 | 14:23.09 | 3:06.20 | 64734 | 78703
7 | 17:29.29 | 2:35.32 | 78704 | 90360
8 | 20:04.61 | 2:25.70 | 90361 | 101305
9 | 22:30.56 | 2:43.63 | 101306 | 113593
10 | 25:14.44 | 2:14.00 | 113594 | 123643
11 | 27:28.44 | 3:16.12 | 123644 | 138355
12 | 30:44.56 | 2:29.11 | 138356 | 149541
13 | 33:13.67 | 3:40.04 | 149542 | 166045
Track 1
Filename E:\PHT\Music\Messer Chups - Mondo Harp (2019) [flac]\01 - Humanica.wav
Pre-gap length 0:00:02.00
Peak level 98.8 %
Extraction speed 2.2 X
Track quality 100.0 %
Test CRC B3ACDA85
Copy CRC B3ACDA85
Track not present in AccurateRip database
Copy OK
Track 2
Filename E:\PHT\Music\Messer Chups - Mondo Harp (2019) [flac]\02 - Green Flippers.wav
Peak level 95.6 %
Extraction speed 2.4 X
Track quality 100.0 %
Test CRC CC023F5F
Copy CRC CC023F5F
Track not present in AccurateRip database
Copy OK
Track 3
Filename E:\PHT\Music\Messer Chups - Mondo Harp (2019) [flac]\03 - Love is a Magical Things.wav
Peak level 95.6 %
Extraction speed 2.3 X
Track quality 99.9 %
Test CRC DDA200DE
Copy CRC DDA200DE
Track not present in AccurateRip database
Copy OK
Track 4
Filename E:\PHT\Music\Messer Chups - Mondo Harp (2019) [flac]\04 - The Cruse of Catzilla.wav
Peak level 95.6 %
Extraction speed 2.4 X
Track quality 99.9 %
Test CRC BA8C9457
Copy CRC BA8C9457
Track not present in AccurateRip database
Copy OK
Track 5
Filename E:\PHT\Music\Messer Chups - Mondo Harp (2019) [flac]\05 - Das Boot.wav
Peak level 95.6 %
Extraction speed 2.9 X
Track quality 100.0 %
Test CRC E030B445
Copy CRC E030B445
Track not present in AccurateRip database
Copy OK
Track 6
Filename E:\PHT\Music\Messer Chups - Mondo Harp (2019) [flac]\06 - Mignight Call.wav
Peak level 95.6 %
Extraction speed 2.7 X
Track quality 99.9 %
Test CRC 8ACE3B92
Copy CRC 8ACE3B92
Track not present in AccurateRip database
Copy OK
Track 7
Filename E:\PHT\Music\Messer Chups - Mondo Harp (2019) [flac]\07 - Siberiada.wav
Peak level 95.6 %
Extraction speed 3.1 X
Track quality 100.0 %
Test CRC 7BD16685
Copy CRC 7BD16685
Track not present in AccurateRip database
Copy OK
Track 8
Filename E:\PHT\Music\Messer Chups - Mondo Harp (2019) [flac]\08 - Agent Horrifica.wav
Peak level 95.6 %
Extraction speed 3.2 X
Track quality 100.0 %
Test CRC B906E6AC
Copy CRC B906E6AC
Track not present in AccurateRip database
Copy OK
Track 9
Filename E:\PHT\Music\Messer Chups - Mondo Harp (2019) [flac]\09 - House of Exorcisme.wav
Peak level 95.6 %
Extraction speed 3.4 X
Track quality 100.0 %
Test CRC 250DE80E
Copy CRC 250DE80E
Track not present in AccurateRip database
Copy OK
Track 10
Filename E:\PHT\Music\Messer Chups - Mondo Harp (2019) [flac]\10 - Gloomy Boy.wav
Peak level 95.6 %
Extraction speed 3.3 X
Track quality 100.0 %
Test CRC A6B45B42
Copy CRC A6B45B42
Track not present in AccurateRip database
Copy OK
Track 11
Filename E:\PHT\Music\Messer Chups - Mondo Harp (2019) [flac]\11 - Padre Pizzicato.wav
Peak level 95.6 %
Extraction speed 3.7 X
Track quality 100.0 %
Test CRC AE04BDE6
Copy CRC AE04BDE6
Track not present in AccurateRip database
Copy OK
Track 12
Filename E:\PHT\Music\Messer Chups - Mondo Harp (2019) [flac]\12 - The World we Knew.wav
Peak level 95.6 %
Extraction speed 3.6 X
Track quality 100.0 %
Test CRC FA340AB3
Copy CRC FA340AB3
Track not present in AccurateRip database
Copy OK
Track 13
Filename E:\PHT\Music\Messer Chups - Mondo Harp (2019) [flac]\13 - Twin Peaks Twist.wav
Peak level 95.6 %
Extraction speed 4.0 X
Track quality 100.0 %
Test CRC 658DE09E
Copy CRC 658DE09E
Track not present in AccurateRip database
Copy OK
None of the tracks are present in the AccurateRip database
No errors occurred
End of status report
---- CUETools DB Plugin V2.1.6
[CTDB TOCID: dN6VZlJCHLB3TvZYfLNvkzDCVFI-] disk not present in database
Submit result: dN6VZlJCHLB3TvZYfLNvkzDCVFI- has been uploaded
==== Log checksum EBB77743B793A7A4126DEE701842207B45629F6D5340FC8D8D8532719C659AAC ====

Содержание индексной карты (.CUE)

REM GENRE surf
REM DATE 2019
REM DISCID 9C08A50D
REM COMMENT "ExactAudioCopy v1.3"
PERFORMER "Messer Chups"
TITLE "Mondo Harp"
REM COMPOSER "Gitarcula"
FILE "01 - Humanica.wav" WAVE
TRACK 01 AUDIO
TITLE "Humanica"
PERFORMER "Messer Chups"
REM COMPOSER "Gitarcula"
INDEX 01 00:00:00
FILE "02 - Green Flippers.wav" WAVE
TRACK 02 AUDIO
TITLE "Green Flippers"
PERFORMER "Messer Chups"
REM COMPOSER "Gitarcula"
INDEX 01 00:00:00
FILE "03 - Love is a Magical Things.wav" WAVE
TRACK 03 AUDIO
TITLE "Love is a Magical Things"
PERFORMER "Messer Chups"
REM COMPOSER "Gitarcula"
INDEX 01 00:00:00
FILE "04 - The Cruse of Catzilla.wav" WAVE
TRACK 04 AUDIO
TITLE "The Cruse of Catzilla"
PERFORMER "Messer Chups"
REM COMPOSER "Gitarcula"
INDEX 01 00:00:00
FILE "05 - Das Boot.wav" WAVE
TRACK 05 AUDIO
TITLE "Das Boot"
PERFORMER "Messer Chups"
REM COMPOSER "Gitarcula"
INDEX 01 00:00:00
FILE "06 - Mignight Call.wav" WAVE
TRACK 06 AUDIO
TITLE "Mignight Call"
PERFORMER "Messer Chups"
REM COMPOSER "Gitarcula"
INDEX 01 00:00:00
FILE "07 - Siberiada.wav" WAVE
TRACK 07 AUDIO
TITLE "Siberiada"
PERFORMER "Messer Chups"
REM COMPOSER "Gitarcula"
INDEX 01 00:00:00
FILE "08 - Agent Horrifica.wav" WAVE
TRACK 08 AUDIO
TITLE "Agent Horrifica"
PERFORMER "Messer Chups"
REM COMPOSER "Gitarcula"
INDEX 01 00:00:00
FILE "09 - House of Exorcisme.wav" WAVE
TRACK 09 AUDIO
TITLE "House of Exorcisme"
PERFORMER "Messer Chups"
REM COMPOSER "Gitarcula"
INDEX 01 00:00:00
FILE "10 - Gloomy Boy.wav" WAVE
TRACK 10 AUDIO
TITLE "Gloomy Boy"
PERFORMER "Messer Chups"
REM COMPOSER "Gitarcula"
INDEX 01 00:00:00
FILE "11 - Padre Pizzicato.wav" WAVE
TRACK 11 AUDIO
TITLE "Padre Pizzicato"
PERFORMER "Messer Chups"
REM COMPOSER "Gitarcula"
INDEX 01 00:00:00
FILE "12 - The World we Knew.wav" WAVE
TRACK 12 AUDIO
TITLE "The World we Knew"
PERFORMER "Messer Chups"
REM COMPOSER "Gitarcula"
INDEX 01 00:00:00
FILE "13 - Twin Peaks Twist.wav" WAVE
TRACK 13 AUDIO
TITLE "Twin Peaks Twist"
PERFORMER "Messer Chups"
REM COMPOSER "Gitarcula"
INDEX 01 00:00:00
[torrents24.ru].t78350.torrent 
Торрент: Зарегистрирован [ 2019-03-19 16:05 ] · ADD642245ACB0FFAE93E9DFA738468F0DB235F8A

Скачать .torrent

Скачать

35 KB

Статус: проверено
Скачан: 2 раз
Размер: 218 MB
terms.php
[Профиль] [ЛС]
Показать сообщения:    
Ответить на тему

Текущее время: 17-Июн 00:32

Часовой пояс: UTC + 3



Вы не можете начинать темы
Вы не можете отвечать на сообщения
Вы не можете редактировать свои сообщения
Вы не можете удалять свои сообщения
Вы не можете голосовать в опросах
Вы не можете прикреплять файлы к сообщениям
Вы можете скачивать файлы

Интересное в сети