Халк / Hulk (Энг Ли / Ang Lee) [2003, США, боевик, фантастика, приключения, BDRip] AVO (Юрий Живов)

Ответить на тему
Статистика раздачи
Размер:  2,17 GB   |    Зарегистрирован:  3 месяца 9 дней   |    Скачан:  0 раз

Полного источника не было: Никогда

 
   
 
 
Автор Сообщение

Ведьмочка ®

Пол: Не указан

Стаж: 1 год 4 месяца

Сообщений: 117

Создавать темы 16-Мар-2019 16:49

[Цитировать]

Халк / Hulk
Страна: США
Жанр: боевик, фантастика, приключения
Год выпуска: 2003
Продолжительность: 02:18:13

Перевод: Авторский (одноголосый закадровый) Юрий Живов
Субтитры: нет
Режиссер: Энг Ли / Ang Lee
В ролях: Эрик Бана, Дженнифер Коннелли, Сэм Эллиотт, Джош Лукас, Ник Нолти, Пол Керси, Кара Буоно, Тодд Тэсэн, Селия Уэстон
Описание: Сверхсекретные исследования в области радиации и мутации живых организмов ставят молодого учёного в очень щепетильное положение: он решил опробовать последние разработки на себе и эксперимент прошёл неудачно. В итоге несчастного случая он стал обладать способностью к превращению в мощного и безумного зелёного монстра. Разумеется, такими разработками в тот же момент заинтересовались военные, и теперь Брюсу Бэннеру – главному герою – предстоит спасти не только свою жизнь, но и избавиться от этого проклятия....

Сэмпл: http://multi-up.com/1226473
Качество видео: BDRip (Исходник BDRemux 1080p)
Формат видео: AVI
Видео: XviD 73, 720x384, (1,85:1), 23,976 fps, 1786 Кбит/с, 8 бит, 0.27 bit/pixel
Аудио: Русский (АС3, 6 ch (Front: L C R, Side: L R, LFE), 48,0 KHz, 448 Kbps)

MediaInfo

Общее
Полное имя : D:\Фильмы на трекер\Халк (боевик, фантастика 2003 год).avi
Формат : AVI
Формат/Информация : Audio Video Interleave
Профиль формата : OpenDML
Размер файла : 2,17 Гбайт
Продолжительность : 2 ч. 18 м.
Общий поток : 2246 Кбит/сек
Программа кодирования : VirtualDubMod 1.5.10.2 (build 2540/release)
Библиотека кодирования : VirtualDubMod build 2540/release
Видео
Идентификатор : 0
Формат : MPEG-4 Visual
Профиль формата : Advanced Simple@L5
Параметр BVOP формата : 2
Параметр QPel формата : Нет
Параметр GMC формата : Без точки перехода
Параметр матрицы формата : Выборочная
Идентификатор кодека : XVID
Идентификатор кодека/Подсказка : XviD
Продолжительность : 2 ч. 18 м.
Битрейт : 1786 Кбит/сек
Ширина : 720 пикселей
Высота : 384 пикселя
Соотношение сторон : 1,85:1
Частота кадров : 23,976 (23976/1000) кадра/сек
Цветовое пространство : YUV
Субдискретизация насыщенности : 4:2:0
Битовая глубина : 8 бит
Тип развёртки : Прогрессивная
Метод сжатия : С потерями
Бит/(Пиксели*Кадры) : 0.269
Размер потока : 1,72 Гбайт (80%)
Библиотека кодирования : XviD 73
Аудио
Идентификатор : 1
Формат : AC-3
Формат/Информация : Audio Coding 3
Расширение режима : CM (complete main)
Параметр Endianness формата : Big
Идентификатор кодека : 2000
Продолжительность : 2 ч. 18 м.
Вид битрейта : Постоянный
Битрейт : 448 Кбит/сек
Каналы : 6 каналов
Расположение каналов : Front: L C R, Side: L R, LFE
Частота : 48,0 КГц
Частота кадров : 31,250 кадров/сек (1536 spf)
Метод сжатия : С потерями
Размер потока : 443 Мбайт (20%)
Выравнивание : Разделение по промежуткам
Продолжительность промежутка : 42 мс. (1,00 видеокадр)
Время предзагрузки промежутка : 500 мс.

Скриншот c названием фильма

Скриншоты

[torrents24.ru].t78094.torrent 
Торрент: Зарегистрирован [ 2019-03-16 16:50 ] · 647177EF65E08FBD3B8B1DAA8513153D41EA0919

Скачать .torrent

Скачать

11 KB

Статус: проверено
Скачан: 0 раз
Размер: 2,17 GB
terms.php
[Профиль] [ЛС]
Показать сообщения:    
Ответить на тему

Текущее время: 26-Июн 08:39

Часовой пояс: UTC + 3



Вы не можете начинать темы
Вы не можете отвечать на сообщения
Вы не можете редактировать свои сообщения
Вы не можете удалять свои сообщения
Вы не можете голосовать в опросах
Вы не можете прикреплять файлы к сообщениям
Вы можете скачивать файлы

Интересное в сети