Мертвое озеро / Серии: 1 из 8 (Роман Прыгунов) [2019, мистика, детектив, триллер, WEBRip 1080p]

Ответить на тему
Статистика раздачи
Размер:  1,9 GB   |    Зарегистрирован:  2 месяца 8 дней   |    Скачан:  0 раз

Полного источника не было: 2 месяца 7 дней

 
   
 
 
Автор Сообщение

АААааа ®

Пол: Не указан

Стаж: 1 год 2 месяца

Сообщений: 315

Создавать темы 14-Мар-2019 16:49

[Цитировать]

Мертвое озеро
Год выпуска: 2019
Производство: TNT Premier Studios, Mediaslovo по заказу телеканала ТВ3
Жанр: мистика, детектив, триллер
Продолжительность: ~00:52:00 серия
Субтитры: нет
Режиссёр: Роман Прыгунов
В ролях: Евгений Цыганов, Павел Табаков, Александра Ребенок, Александр Робак, Андрей Смоляков, Виктор Хориняк, Павел Ворожцов, Лев Прыгунов, Тимофей Трибунцев, Полина Кутепова, Ксения Кутепова, Надежда Михалкова, Кристина Казинская, Михаил Гаврилов , Екатерина Семёнова, Мария Карпова, Мария Перн, Кирилл Полухин
Описание: Владелец урановых родников Юрий Кобрин — царь и бог в родном Чангадане. Его бизнес идет в гору и кажется, что ничто не может ему помешать. Но однажды дочь олигарха находят мертвой — кто-то использовал ее для обряда ритуального жертвоприношения. Чтобы найти убийцу, Кобрин выписывает из Москвы лучшего детектива — Максима Покровского. То, с чем сталкивается столичный следователь в маленьком северном городке, бросает вызов всему, на что он опирался в своей работе. Покровскому предстоит разобраться в сложном клубке из криминала, корпоративных интриг и мрачных тайн семейства Кобриных.

Реклама: Нет.
Кинопоиск
Все раздачи сериала
Sample
Качество: WEBRip 1080p - Getty
Формат: MKV
Видео кодек: H.264
Аудио кодек: AC3
Видео: MPEG4 AVC Video, H264, 16:9, 1920x1080, 25 fps, ~5000 kbps, 0.096 bit/pixel
Аудио: AC3 Dolby Digital, 48.0 kHz, 2/0 (L,R) ch, 192 kbps

Внимание! Раздача ведётся путём добавления новых серий

Раздача ведётся путём добавления новых серий, при каждом добавлении создаётся новый торрент. Чтобы начать докачку новой серии, пользователям необходимо сделать следующее:
- Остановить скачивание.
- Удалить старый торрент у себя из клиента (старые серии удалять не надо).
- Скачать новый торрент и запустить его у себя в клиенте вместо старого, при этом указать клиенту путь в старую папку куда и должно происходить скачивание новых серий.
Ваш клиент при этом должен произвести хеширование (проверку) старой папки (если не производит сам - помогите ему сделать это), и будет докачивать только те серии которых у вас ещё нет. Старые серии при этом не удаляются, а продолжают раздаваться!
Если вы уже удалили старые серии, то предотвратить повторную закачку старых серий можно, отжав галочку в соответствующих местах при запуске нового торрента. По возможности, желательно не удалять старые серии как можно дольше, чтобы релизер не столько продолжал раздавать старые серии, а смог сконцентрироваться на новых.

MI

General
Unique ID : 231221924315960950589966078976903813321 (0xADF3B9085D866237991889F4822718C9)
Complete name : D:\Mertvoe.ozero.2018.WEB-DL.(1080p).Getty\Mertvoe.ozero.e01.2018.WEB-DL.(1080p).Getty.mkv
Format : Matroska
Format version : Version 4 / Version 2
File size : 1.90 GiB
Duration : 52 min 42 s
Overall bit rate mode : Constant
Overall bit rate : 5 166 kb/s
Movie name : Mertvoe.ozero.e01.2018.WEB-DL.(1080p).Getty
Encoded date : UTC 2019-03-13 20:13:41
Writing application : mkvmerge v7.8.0 ('River Man') 32bit built on Mar 27 2015 16:18:02
Writing library : libebml v1.3.1 + libmatroska v1.4.2
Video
ID : 1
Format : AVC
Format/Info : Advanced Video Codec
Format profile : Baseline@L4
Format settings : 4 Ref Frames
Format settings, CABAC : No
Format settings, ReFrames : 4 frames
Codec ID : V_MPEG4/ISO/AVC
Duration : 52 min 42 s
Bit rate mode : Constant
Bit rate : 5 000 kb/s
Width : 1 920 pixels
Height : 1 080 pixels
Display aspect ratio : 16:9
Frame rate mode : Constant
Frame rate : 25.000 FPS
Standard : PAL
Color space : YUV
Chroma subsampling : 4:2:0
Bit depth : 8 bits
Scan type : Progressive
Bits/(Pixel*Frame) : 0.096
Stream size : 1.83 GiB (96%)
Default : Yes
Forced : No
Color range : Limited
Color primaries : BT.709
Transfer characteristics : BT.709
Matrix coefficients : BT.709
Audio
ID : 2
Format : AC-3
Format/Info : Audio Coding 3
Codec ID : A_AC3
Duration : 52 min 42 s
Bit rate mode : Constant
Bit rate : 192 kb/s
Channel(s) : 2 channels
Channel positions : Front: L R
Sampling rate : 48.0 kHz
Frame rate : 31.250 FPS (1536 SPF)
Bit depth : 16 bits
Compression mode : Lossy
Stream size : 72.4 MiB (4%)
Service kind : Complete Main
Default : Yes
Forced : No

Скриншоты


[torrents24.ru].t77933.torrent 
Торрент: Зарегистрирован [ 2019-03-14 16:50 ] · E8A1170BBBB27A557FAD6E886C135B9ABDE024C0

Скачать .torrent

Скачать

20 KB

Статус: проверено
Скачан: 0 раз
Размер: 1,9 GB
terms.php
[Профиль] [ЛС]
Показать сообщения:    
Ответить на тему

Текущее время: 23-Май 01:45

Часовой пояс: UTC + 3



Вы не можете начинать темы
Вы не можете отвечать на сообщения
Вы не можете редактировать свои сообщения
Вы не можете удалять свои сообщения
Вы не можете голосовать в опросах
Вы не можете прикреплять файлы к сообщениям
Вы можете скачивать файлы

Интересное в сети