(Jazz-Rock) [CD] Вежливый Отказ - Опера-86 - 1986/2019, FLAC (image+.cue), lossless

Ответить на тему
Статистика раздачи
Размер:  571 MB   |    Зарегистрирован:  2 месяца 11 дней   |    Скачан:  0 раз

Полного источника не было: Никогда

 
   
 
 
Автор Сообщение

mafil ®

Пол: Не указан

Стаж: 1 год 2 месяца

Сообщений: 97

Создавать темы 14-Мар-2019 16:49

[Цитировать]

Вежливый Отказ / Опера-86
Жанр: Jazz-Rock
Носитель: CD
Страна-производитель диска (релиза): Russia
Год издания: 1986/2019
Издатель (лейбл): Геометрия
Номер по каталогу: GEO 107 CD/ GEO 108 CD/ GEO 118 CD
Страна исполнителя (группы): Russia
Аудиокодек: FLAC (*.flac)
Тип рипа: image+.cue
Битрейт аудио: lossless
Продолжительность: 93:20
Источник: собственный рип
Наличие сканов в содержимом раздачи: частично (Digipack & CDs)

Треклист

CD 1 - Опера-86

1 Ракеты-кометы 3:48
2 Мы все обречены на поражение 2:21
3 Середина зимы 3:02
4 Далеко не на каждой планете 3:05
5 Несу я украдкой 2:42
6 Из варягов 4:07
7 Пролетарий 1:49
8 Телеграфист 3:12
9 Я учусь 2:31
10 Пионер 3:03
11 Блюз 2:56
Bonus Tracks - Alternative Mix
12 Пролетарий 1:49
13 Мы все обречены на поражение 2:22
14 Середина зимы 3:01
15 Я учусь 2:31
16 Блюз 2:45

CD 2 - Архив 1986

ДК ЖБИ
1 Телеграфист 3:29
2 Из варягов 4:08
3 Далеко не на каждой планете 2:52
4 Несу я украдкой 3:05
5 Встречное движение 2:43
6 Пионер 3:12
7 Такси миллионов 3:06
8 Телевизор 2:48
ДК МИИТ
9 Середина зимы 3:10
10 Портрет 3:00
11 День и ночь 3:54
12 Помощник 4:44
13 В чужих озерах сна 4:17

CD 3 - Роман Суслов и Петр Айду: Студия "Параметрика" 2010

1 Четыре газетных объявления 3:49

Логи создания рипа

CD 1 - Опера-86

Exact Audio Copy V1.3 from 2. September 2016
EAC extraction logfile from 13. March 2019, 18:35
Вежливый Отказ / Опера-86
Used drive : ATAPI DVD A DH16A6L Adapter: 1 ID: 2
Read mode : Secure
Utilize accurate stream : Yes
Defeat audio cache : Yes
Make use of C2 pointers : No
Read offset correction : 6
Overread into Lead-In and Lead-Out : No
Fill up missing offset samples with silence : Yes
Delete leading and trailing silent blocks : No
Null samples used in CRC calculations : Yes
Used interface : Native Win32 interface for Win NT & 2000
Used output format : User Defined Encoder
Selected bitrate : 128 kBit/s
Quality : High
Add ID3 tag : No
Command line compressor : C:\Program Files (x86)\FLAC\flac.exe
Additional command line options : -V -8 %source%
TOC of the extracted CD
Track | Start | Length | Start sector | End sector
---------------------------------------------------------
1 | 0:00.00 | 3:47.57 | 0 | 17081
2 | 3:47.57 | 2:21.36 | 17082 | 27692
3 | 6:09.18 | 3:01.71 | 27693 | 41338
4 | 9:11.14 | 3:04.70 | 41339 | 55208
5 | 12:16.09 | 2:42.28 | 55209 | 67386
6 | 14:58.37 | 4:06.43 | 67387 | 85879
7 | 19:05.05 | 1:49.32 | 85880 | 94086
8 | 20:54.37 | 3:11.38 | 94087 | 108449
9 | 24:06.00 | 2:31.32 | 108450 | 119806
10 | 26:37.32 | 3:03.18 | 119807 | 133549
11 | 29:40.50 | 2:55.60 | 133550 | 146734
12 | 32:36.35 | 1:49.31 | 146735 | 154940
13 | 34:25.66 | 2:21.42 | 154941 | 165557
14 | 36:47.33 | 3:01.24 | 165558 | 179156
15 | 39:48.57 | 2:30.42 | 179157 | 190448
16 | 42:19.24 | 2:44.50 | 190449 | 202798
Range status and errors
Selected range
Filename E:\Temp Documents\из И-Нета\TORRENTS\Раздача\Вежливый Отказ - Опера-86\Вежливый Отказ - Опера-86.wav
Peak level 100.0 %
Extraction speed 5.7 X
Range quality 100.0 %
Test CRC 9D9AD230
Copy CRC 9D9AD230
Copy OK
No errors occurred
AccurateRip summary
Track 1 not present in database
Track 2 not present in database
Track 3 not present in database
Track 4 not present in database
Track 5 not present in database
Track 6 not present in database
Track 7 not present in database
Track 8 not present in database
Track 9 not present in database
Track 10 not present in database
Track 11 not present in database
Track 12 not present in database
Track 13 not present in database
Track 14 not present in database
Track 15 not present in database
Track 16 not present in database
None of the tracks are present in the AccurateRip database
End of status report
---- CUETools DB Plugin V2.1.6
[CTDB TOCID: SHM1QgwXVK63XRDlzkMneIE172Y-] found
Submit result: SHM1QgwXVK63XRDlzkMneIE172Y- has been confirmed
Track | CTDB Status
1 | (1/1) Accurately ripped
2 | (1/1) Accurately ripped
3 | (1/1) Accurately ripped
4 | (1/1) Accurately ripped
5 | (1/1) Accurately ripped
6 | (1/1) Accurately ripped
7 | (1/1) Accurately ripped
8 | (1/1) Accurately ripped
9 | (1/1) Accurately ripped
10 | (1/1) Accurately ripped
11 | (1/1) Accurately ripped
12 | (1/1) Accurately ripped
13 | (1/1) Accurately ripped
14 | (1/1) Accurately ripped
15 | (1/1) Accurately ripped
16 | (1/1) Accurately ripped
==== Log checksum DAC7DC774E924A6651769CCB462133274D59FA06BA53BBF7C84071745A86E043 ====

CD 2 - Архив 1986

Exact Audio Copy V1.3 from 2. September 2016
EAC extraction logfile from 13. March 2019, 18:59
Вежливый Отказ / Опера-86 CD 2
Used drive : ATAPI DVD A DH16A6L Adapter: 1 ID: 2
Read mode : Secure
Utilize accurate stream : Yes
Defeat audio cache : Yes
Make use of C2 pointers : No
Read offset correction : 6
Overread into Lead-In and Lead-Out : No
Fill up missing offset samples with silence : Yes
Delete leading and trailing silent blocks : No
Null samples used in CRC calculations : Yes
Used interface : Native Win32 interface for Win NT & 2000
Used output format : User Defined Encoder
Selected bitrate : 128 kBit/s
Quality : High
Add ID3 tag : No
Command line compressor : C:\Program Files (x86)\FLAC\flac.exe
Additional command line options : -V -8 %source%
TOC of the extracted CD
Track | Start | Length | Start sector | End sector
---------------------------------------------------------
1 | 0:00.00 | 3:28.53 | 0 | 15652
2 | 3:28.53 | 4:07.64 | 15653 | 34241
3 | 7:36.42 | 2:52.32 | 34242 | 47173
4 | 10:28.74 | 3:04.47 | 47174 | 61020
5 | 13:33.46 | 2:42.67 | 61021 | 73237
6 | 16:16.38 | 3:11.41 | 73238 | 87603
7 | 19:28.04 | 3:05.71 | 87604 | 101549
8 | 22:34.00 | 2:48.08 | 101550 | 114157
9 | 25:22.08 | 3:09.56 | 114158 | 128388
10 | 28:31.64 | 3:00.36 | 128389 | 141924
11 | 31:32.25 | 3:54.36 | 141925 | 159510
12 | 35:26.61 | 4:43.55 | 159511 | 180790
13 | 40:10.41 | 4:16.45 | 180791 | 200035
Range status and errors
Selected range
Filename E:\Temp Documents\из И-Нета\TORRENTS\Раздача\Вежливый Отказ - Опера-86\Вежливый Отказ - Опера-86 CD 2.wav
Peak level 98.8 %
Extraction speed 3.0 X
Range quality 100.0 %
Test CRC B27644B1
Copy CRC B27644B1
Copy OK
No errors occurred
AccurateRip summary
Track 1 not present in database
Track 2 not present in database
Track 3 not present in database
Track 4 not present in database
Track 5 not present in database
Track 6 not present in database
Track 7 not present in database
Track 8 not present in database
Track 9 not present in database
Track 10 not present in database
Track 11 not present in database
Track 12 not present in database
Track 13 not present in database
None of the tracks are present in the AccurateRip database
End of status report
---- CUETools DB Plugin V2.1.6
[CTDB TOCID: UmKFGt7Lmg5OHBhGd3YZAo7ZI3Y-] found
Submit result: UmKFGt7Lmg5OHBhGd3YZAo7ZI3Y- has been confirmed
Track | CTDB Status
1 | (1/1) Accurately ripped
2 | (1/1) Accurately ripped
3 | (1/1) Accurately ripped
4 | (1/1) Accurately ripped
5 | (1/1) Accurately ripped
6 | (1/1) Accurately ripped
7 | (1/1) Accurately ripped
8 | (1/1) Accurately ripped
9 | (1/1) Accurately ripped
10 | (1/1) Accurately ripped
11 | (1/1) Accurately ripped
12 | (1/1) Accurately ripped
13 | (1/1) Accurately ripped
==== Log checksum 8B42C34F7F1CA77F68CA7468FF6E2AA1A8450AD35E48E500E3E5A5815D6F8AC7 ====

CD 3 - Роман Суслов и Петр Айду: Студия "Параметрика" 2010

Exact Audio Copy V1.3 from 2. September 2016
EAC extraction logfile from 13. March 2019, 19:07
Вежливый Отказ / Опера-86 CD 3 - Студия 'Параметрика' 2010
Used drive : ATAPI DVD A DH16A6L Adapter: 1 ID: 2
Read mode : Secure
Utilize accurate stream : Yes
Defeat audio cache : Yes
Make use of C2 pointers : No
Read offset correction : 6
Overread into Lead-In and Lead-Out : No
Fill up missing offset samples with silence : Yes
Delete leading and trailing silent blocks : No
Null samples used in CRC calculations : Yes
Used interface : Native Win32 interface for Win NT & 2000
Used output format : User Defined Encoder
Selected bitrate : 128 kBit/s
Quality : High
Add ID3 tag : No
Command line compressor : C:\Program Files (x86)\FLAC\flac.exe
Additional command line options : -V -8 %source%
TOC of the extracted CD
Track | Start | Length | Start sector | End sector
---------------------------------------------------------
1 | 0:00.00 | 3:49.27 | 0 | 17201
Range status and errors
Selected range
Filename E:\Temp Documents\из И-Нета\TORRENTS\Раздача\Вежливый Отказ - Опера-86\Вежливый Отказ - Опера-86 CD 3 - Студия 'Параметрика' 2010.wav
Peak level 99.7 %
Extraction speed 2.0 X
Range quality 100.0 %
Test CRC EB5E9776
Copy CRC EB5E9776
Copy OK
No errors occurred
AccurateRip summary
Track 1 cannot be verified as accurate (confidence 5) [99DBE41E], AccurateRip returned [6C649C16] (AR v2)
No tracks could be verified as accurate
You may have a different pressing from the one(s) in the database
End of status report
---- CUETools DB Plugin V2.1.6
[CTDB TOCID: SiyqjHW2VZjBIkxwTD4LiqaKWX4-] found
Submit result: SiyqjHW2VZjBIkxwTD4LiqaKWX4- has been confirmed
Track | CTDB Status
1 | (1/9) Accurately ripped
==== Log checksum 884986B9A8EF691E77769517E3246EDCBC06613BF51746495E901ECB0F1501F5 ====

Содержание индексных карт (.CUE)

CD 1 - Опера-86

REM GENRE Jazz-Rock
REM DATE 1986
REM DISCID E50A8F10
REM COMMENT "ExactAudioCopy v1.3"
PERFORMER "Вежливый Отказ"
TITLE "Опера-86"
REM COMPOSER ""
FILE "Вежливый Отказ - Опера-86.flac" WAVE
TRACK 01 AUDIO
TITLE "Ракеты-Кометы"
PERFORMER "Вежливый Отказ"
REM COMPOSER "Pyotr Plavinsky"
INDEX 01 00:00:00
TRACK 02 AUDIO
TITLE "Мы все обречены на пораженье"
PERFORMER "Вежливый Отказ"
REM COMPOSER "Roman Suslov"
INDEX 00 03:46:57
INDEX 01 03:47:57
TRACK 03 AUDIO
TITLE "Середина зимы"
PERFORMER "Вежливый Отказ"
REM COMPOSER "Roman Suslov"
INDEX 00 06:07:18
INDEX 01 06:09:18
TRACK 04 AUDIO
TITLE "Далеко не на каждой планете"
PERFORMER "Вежливый Отказ"
REM COMPOSER "Pyotr Plavinsky"
INDEX 00 09:09:14
INDEX 01 09:11:14
TRACK 05 AUDIO
TITLE "Несу я украдкой"
PERFORMER "Вежливый Отказ"
REM COMPOSER "Roman Suslov"
INDEX 00 12:14:09
INDEX 01 12:16:09
TRACK 06 AUDIO
TITLE "Из варягов"
PERFORMER "Вежливый Отказ"
REM COMPOSER "Roman Suslov"
INDEX 00 14:56:37
INDEX 01 14:58:37
TRACK 07 AUDIO
TITLE "Пролетарий"
PERFORMER "Вежливый Отказ"
REM COMPOSER "Pyotr Plavinsky"
INDEX 00 19:03:05
INDEX 01 19:05:05
TRACK 08 AUDIO
TITLE "Телеграфист"
PERFORMER "Вежливый Отказ"
REM COMPOSER "Roman Suslov"
INDEX 00 20:52:37
INDEX 01 20:54:37
TRACK 09 AUDIO
TITLE "Я учусь"
PERFORMER "Вежливый Отказ"
REM COMPOSER "Roman Suslov"
INDEX 00 24:04:00
INDEX 01 24:06:00
TRACK 10 AUDIO
TITLE "Пионер"
PERFORMER "Вежливый Отказ"
REM COMPOSER "Pyotr Plavinsky"
INDEX 00 26:35:32
INDEX 01 26:37:32
TRACK 11 AUDIO
TITLE "Блюз"
PERFORMER "Вежливый Отказ"
REM COMPOSER "Pyotr Plavinsky"
INDEX 00 29:38:50
INDEX 01 29:40:50
TRACK 12 AUDIO
TITLE "Пролетарий (Bonus Track)"
PERFORMER "Вежливый Отказ"
REM COMPOSER "Pyotr Plavinsky"
INDEX 00 32:28:35
INDEX 01 32:36:35
TRACK 13 AUDIO
TITLE "Мы все обречены на пораженье (Bonus Track)"
PERFORMER "Вежливый Отказ"
REM COMPOSER "Roman Suslov"
INDEX 00 34:23:66
INDEX 01 34:25:66
TRACK 14 AUDIO
TITLE "Середина зимы (Bonus Track)"
PERFORMER "Вежливый Отказ"
REM COMPOSER "Roman Suslov"
INDEX 00 36:45:33
INDEX 01 36:47:33
TRACK 15 AUDIO
TITLE "Я учусь (Bonus Track)"
PERFORMER "Вежливый Отказ"
REM COMPOSER "Roman Suslov"
INDEX 00 39:46:57
INDEX 01 39:48:57
TRACK 16 AUDIO
TITLE "Блюз (Bonus Track)"
PERFORMER "Вежливый Отказ"
REM COMPOSER "Pyotr Plavinsky"
INDEX 00 42:17:24
INDEX 01 42:19:24

CD 2 - Архив 1986

REM GENRE Jazz-Rock
REM DATE 2019
REM DISCID A10A6B0D
REM COMMENT "ExactAudioCopy v1.3"
PERFORMER "Вежливый Отказ"
TITLE "Опера-86 CD 2"
REM COMPOSER ""
FILE "Вежливый Отказ - Опера-86 CD 2.flac" WAVE
TRACK 01 AUDIO
TITLE "Телеграфист"
PERFORMER "Вежливый Отказ"
REM COMPOSER ""
INDEX 01 00:00:00
TRACK 02 AUDIO
TITLE "Из врягов"
PERFORMER "Вежливый Отказ"
REM COMPOSER ""
INDEX 01 03:28:53
TRACK 03 AUDIO
TITLE "Далеко не на каждой планете"
PERFORMER "Вежливый Отказ"
REM COMPOSER ""
INDEX 01 07:36:42
TRACK 04 AUDIO
TITLE "Несу я украдкой"
PERFORMER "Вежливый Отказ"
REM COMPOSER ""
INDEX 01 10:28:74
TRACK 05 AUDIO
TITLE "Встречное движение"
PERFORMER "Вежливый Отказ"
REM COMPOSER ""
INDEX 01 13:33:46
TRACK 06 AUDIO
TITLE "Пионер"
PERFORMER "Вежливый Отказ"
REM COMPOSER ""
INDEX 01 16:16:38
TRACK 07 AUDIO
TITLE "Такси миллионов"
PERFORMER "Вежливый Отказ"
REM COMPOSER ""
INDEX 01 19:28:04
TRACK 08 AUDIO
TITLE "Телевизор"
PERFORMER "Вежливый Отказ"
REM COMPOSER ""
INDEX 01 22:34:00
TRACK 09 AUDIO
TITLE "Середина зимы"
PERFORMER "Вежливый Отказ"
REM COMPOSER ""
INDEX 00 25:14:08
INDEX 01 25:22:08
TRACK 10 AUDIO
TITLE "Портрет"
PERFORMER "Вежливый Отказ"
REM COMPOSER ""
INDEX 01 28:31:64
TRACK 11 AUDIO
TITLE "День и ночь"
PERFORMER "Вежливый Отказ"
REM COMPOSER ""
INDEX 01 31:32:25
TRACK 12 AUDIO
TITLE "Помощник"
PERFORMER "Вежливый Отказ"
REM COMPOSER ""
INDEX 01 35:26:61
TRACK 13 AUDIO
TITLE "В чужих озерах сна"
PERFORMER "Вежливый Отказ"
REM COMPOSER ""
INDEX 01 40:10:41

CD 3 - Роман Суслов и Петр Айду: Студия "Параметрика" 2010

REM GENRE Jazz-Rock
REM DATE 2019
REM DISCID 0200E501
REM COMMENT "ExactAudioCopy v1.3"
PERFORMER "Вежливый Отказ"
TITLE "Опера-86 CD 3 - Студия 'Параметрика' 2010"
REM COMPOSER ""
FILE "Вежливый Отказ - Опера-86 CD 3 - Студия 'Параметрика' 2010.flac" WAVE
TRACK 01 AUDIO
TITLE "Четыре газетных объявления"
PERFORMER "Вежливый Отказ"
REM COMPOSER "Alexander Mosolov"
INDEX 01 00:00:00
[torrents24.ru].t77930.torrent 
Торрент: Зарегистрирован [ 2019-03-14 16:50 ] · 095AF349EDBB7CB1B6A26A6BEB262E047C1C488A

Скачать .torrent

Скачать

13 KB

Статус: проверено
Скачан: 0 раз
Размер: 571 MB
terms.php
[Профиль] [ЛС]
Показать сообщения:    
Ответить на тему

Текущее время: 26-Май 07:04

Часовой пояс: UTC + 3



Вы не можете начинать темы
Вы не можете отвечать на сообщения
Вы не можете редактировать свои сообщения
Вы не можете удалять свои сообщения
Вы не можете голосовать в опросах
Вы не можете прикреплять файлы к сообщениям
Вы можете скачивать файлы

Интересное в сети