Завод (Юрий Быков) [2018, криминал, драма, триллер, WEB-DLRip]

Ответить на тему
Статистика раздачи
Размер:  2,05 GB   |    Зарегистрирован:  2 месяца 11 дней   |    Скачан:  0 раз
Сидов:  205  [  0 KB/s  ]   Личеров:  12  [  0 KB/s  ]  
 
   
 
 
Автор Сообщение

Болт ®

Пол: Не указан

Стаж: 1 год 3 месяца

Сообщений: 125

Создавать темы 14-Мар-2019 16:49

[Цитировать]

Завод
Страна: Россия, Франция, Армения
Жанр: криминал, драма, триллер
Год выпуска: 2018
Продолжительность: 01:50:43
Субтитры: нет-Режиссер: Юрий Быков-В ролях: Денис Шведов, Владислав Абашин, Андрей Смоляков, Александр Бухаров, Дмитрий Куличков, Иван Янковский, Юрий Тарасов, Пётр Баранчеев, Александр Воробьёв, Алексей Комашко, Кирилл Полухин, Александр Логинов, Сергей Сосновский, Борис Невзоров, Олег Алмазов, Александр Баширов, Алексей Фаддеев, Илья Соколовский-Описание: Прямо посреди дня из своего «мерса» похищен местный олигарх Калугин. Неизвестные в балаклавах потребовали за него большой выкуп. Отвезти деньги берётся глава личной охраны бизнесмена по кличке Туман. Его вооружённые до зубов «спецы» приезжают ночью на завод Калугина, где теперь босса держат в заложниках.
Они пока не знают, что те другие, забаррикадировавшиеся в цехе — это местные рабочие во главе с бывшим спецназовцем по прозвищу Седой. Полгода без зарплаты и предстоящее банкротство завода толкнули их на отчаянный шаг.
Чтобы вытащить своего хозяина, «спецы» не остановятся ни перед чем. Но в отличие от них «работягам» больше нечего терять…-
Качество видео: WEB-DLRip
Формат видео: AVI
Видео: 720x304 (2.37:1), 24.000 fps, XviD build 73 ~2262 kbps avg, 0.43 bit/pixel
Аудио: 48 kHz, AC3 Dolby Digital, 3/2 (L,C,R,l,r) + LFE ch, ~384 kbps - iTunes-[box]Сэмпл[/box]-

MediaInfo

Код:Формат : AVI
Формат/Информация : Audio Video Interleave
Профиль формата : OpenDML
Размер файла : 2,05 Гбайт
Продолжительность : 1 ч. 50 м.
Общий поток : 2654 Кбит/сек
Программа кодирования : VirtualDubMod 1.5.10.3 | www.virtualdub-fr.org || (build 2550/release)
Библиотека кодирования : VirtualDubMod build 2550/release
Видео
Идентификатор : 0
Формат : MPEG-4 Visual
Профиль формата : Advanced Simple@L5
Настройки формата : BVOP1 / Custom Matrix
Параметр BVOP формата : 1
Параметр QPel формата : Нет
Параметр GMC формата : Без точки перехода
Параметр матрицы формата : Выборочная
Идентификатор кодека : XVID
Идентификатор кодека/Подсказка : XviD
Продолжительность : 1 ч. 50 м.
Битрейт : 2258 Кбит/сек
Ширина : 720 пикселей
Высота : 304 пикселя
Соотношение сторон : 2,35:1
Частота кадров : 24,000 кадра/сек
Цветовое пространство : YUV
Субдискретизация насыщенности : 4:2:0
Битовая глубина : 8 бит
Тип развёртки : Прогрессивная
Метод сжатия : С потерями
Бит/(Пиксели*Кадры) : 0.430
Размер потока : 1,75 Гбайт (85%)
Библиотека кодирования : XviD 73
Аудио
Идентификатор : 1
Формат : AC-3
Формат/Информация : Audio Coding 3
Коммерческое название : Dolby Digital
Идентификатор кодека : 2000
Продолжительность : 1 ч. 50 м.
Вид битрейта : Постоянный
Битрейт : 384 Кбит/сек
Каналы : 6 каналов
Channel layout : L R C LFE Ls Rs
Частота : 48,0 КГц
Частота кадров : 31,250 кадров/сек (1536 SPF)
Битовая глубина : 16 бит
Метод сжатия : С потерями
Размер потока : 304 Мбайт (14%)
Выравнивание : Разделение по промежуткам
Продолжительность промежутка : 42 мс. (1,00 видеокадр)
Время предзагрузки промежутка : 500 мс.
ServiceKind/String : Complete Main

Скриншоты


[torrents24.ru].t77928.torrent 
Торрент: Зарегистрирован [ 2019-03-14 16:50 ] · 8490D37BD696D30DEF71EC88BFDD1B2E4C11E716

Скачать .torrent

Скачать

11 KB

Статус: проверено
Скачан: 0 раз
Размер: 2,05 GB
terms.php
[Профиль] [ЛС]
Показать сообщения:    
Ответить на тему

Текущее время: 26-Май 06:36

Часовой пояс: UTC + 3



Вы не можете начинать темы
Вы не можете отвечать на сообщения
Вы не можете редактировать свои сообщения
Вы не можете удалять свои сообщения
Вы не можете голосовать в опросах
Вы не можете прикреплять файлы к сообщениям
Вы можете скачивать файлы

Интересное в сети