(Шансон) [CD] Вадим Крёстный - Феникс из Пепла - 2007, FLAC (image+.cue), lossless

Ответить на тему
Статистика раздачи
Размер:  731 MB   |    Зарегистрирован:  2 месяца 10 дней   |    Скачан:  0 раз

Полного источника не было: Никогда

 
   
 
 
Автор Сообщение

Камилла ®

Пол: Не указан

Стаж: 1 год 2 месяца

Сообщений: 58

Создавать темы 12-Мар-2019 09:22

[Цитировать]

Крёстный Вадим / Феникс из Пепла Жанр: Шансон
Страна-производитель диска (релиза): Россия
Год издания: 2011
Издатель (лейбл): (с)&(р) ООО "Звук-М"
Номер по каталогу: ZM1387
Страна исполнителя (группы): Россия
Аудиокодек: FLAC
Тип рипа: image+.cue
Битрейт аудио: lossless
Продолжительность: 01:16:43
Источник: rutracker.org (до блокировки) "©"
Наличие сканов в содержимом раздачи: 300 dpi

Треклист:
01. В гору (Музыка и слова Вадим Крёстный) [04:10]
02. Всё у нас в порядочке (Музыка и слова Вадим Крёстный) [03:50]
03. Купола (Музыка и слова Вадим Крёстный) [04:19]
04. На посошок ! (Музыка и слова Вадим Крёстный) [04:04]
05. Тяжела ты, ноша ... (Музыка и слова Вадим Крёстный) [03:54]
06. Тополя (Музыка и слова Вадим Крёстный) [04:11]
07. Горбатый (Музыка и слова Вадим Крёстный) [04:18]
08. К другу я на день рождения ... (Музыка и слова Вадим Крёстный) [03:26]
09. Полосатый рейс (Музыка и слова Вадим Крёстный) [04:42]
10. Голубка (Музыка и слова Вадим Крёстный) [05:22]
11. В парке (Музыка и слова Вадим Крёстный) [03:27]
12. Привет, Санкт-Петербург ! (Музыка и слова Вадим Крёстный) [03:47]
13. Памяти река (Музыка и слова Вадим Крёстный) [06:18]
14. Сладкая такая (Музыка и слова Вадим Крёстный) [04:18]
15. Сосны, пихты, ели (Музыка и слова Вадим Крёстный) [04:22]
16. Ты иди (Музыка и слова Вадим Крёстный) [04:10]
17. Старики мои (Музыка и слова Вадим Крёстный) [03:49]
18. Феникс из пепла (Музыка и слова Вадим Крёстный) [04:04]

Лог создания рипа (.log)

Exact Audio Copy V1.0 beta 2 from 29. April 2011
Отчёт EAC об извлечении, выполненном 27. августа 2012, 23:34
Вадим Крёстный / Серия «ЗОНА ШАНСОНА» - Феникс из пепла
Дисковод: Optiarc DVD RW AD-7190A Adapter: 0 ID: 0
Режим чтения : Достоверность
Использование точного потока : Да
Отключение кэша аудио : Да
Использование указателей C2 : Нет
Коррекция смещения при чтении : 6
Способность читать области Lead-in и Lead-out : Нет
Заполнение пропущенных сэмплов тишиной : Да
Удаление блоков с тишиной в начале и конце : Нет
При вычислениях CRC использовались нулевые сэмплы : Да
Интерфейс : Встроенный Win32-интерфейс для Win NT/2000
Выходной формат : Внутренние WAV-операции
Формат сэмплов : 44.100 Гц; 16 бит; стерео
TOC извлечённого CD
Трек | Старт | Длительность | Начальный сектор | Конечный сектор
---------------------------------------------------------------------
1 | 0:00.00 | 4:10.31 | 0 | 18780
2 | 4:10.31 | 3:50.36 | 18781 | 36066
3 | 8:00.67 | 4:19.74 | 36067 | 55565
4 | 12:20.66 | 4:04.51 | 55566 | 73916
5 | 16:25.42 | 3:54.34 | 73917 | 91500
6 | 20:20.01 | 4:11.47 | 91501 | 110372
7 | 24:31.48 | 4:18.43 | 110373 | 129765
8 | 28:50.16 | 3:26.47 | 129766 | 145262
9 | 32:16.63 | 4:42.37 | 145263 | 166449
10 | 36:59.25 | 5:22.74 | 166450 | 190673
11 | 42:22.24 | 3:27.54 | 190674 | 206252
12 | 45:50.03 | 3:47.03 | 206253 | 223280
13 | 49:37.06 | 6:19.00 | 223281 | 251705
14 | 55:56.06 | 4:18.74 | 251706 | 271129
15 | 60:15.05 | 4:22.74 | 271130 | 290853
16 | 64:38.04 | 4:10.36 | 290854 | 309639
17 | 68:48.40 | 3:49.37 | 309640 | 326851
18 | 72:38.02 | 4:04.52 | 326852 | 345203
Характеристики диапазона извлечения и сообщения об ошибках
Выбранный диапазон
Имя файла E:\ШАНСОН\КРЁСТНЫЙ ВАДИМ © [Дискография]\КРЁСТНЫЙ ВАДИМ (с) 2011 [Феникс из пепла]\Вадим Крёстный - Серия «ЗОНА ШАНСОНА» - Феникс из пепла.wav
Пиковый уровень 100.0 %
Скорость извлечения 4.6 X
Качество диапазона 99.8 %
CRC теста FF764285
CRC копии FF764285
Копирование... OK
Ошибок не произошло
AccurateRip: сводка
Трек 1 отсутствует в базе данных
Трек 2 отсутствует в базе данных
Трек 3 отсутствует в базе данных
Трек 4 отсутствует в базе данных
Трек 5 отсутствует в базе данных
Трек 6 отсутствует в базе данных
Трек 7 отсутствует в базе данных
Трек 8 отсутствует в базе данных
Трек 9 отсутствует в базе данных
Трек 10 отсутствует в базе данных
Трек 11 отсутствует в базе данных
Трек 12 отсутствует в базе данных
Трек 13 отсутствует в базе данных
Трек 14 отсутствует в базе данных
Трек 15 отсутствует в базе данных
Трек 16 отсутствует в базе данных
Трек 17 отсутствует в базе данных
Трек 18 отсутствует в базе данных
Ни одного трека нет в базе AccurateRip
Конец отчёта
==== Контрольная сумма отчёта BEBF1EF70E7A13EFBCF4D1176CF7CE84CDEE309AAA54D6768187B83B74A04228 ====

Содержание индексной карты (.cue)

REM GENRE Chanson
REM DATE 2011
REM DISCID 0411FA12
REM COMMENT "ExactAudioCopy v1.0b2"
PERFORMER "Вадим Крёстный"
TITLE "Серия «ЗОНА ШАНСОНА» - Феникс из пепла"
FILE "Вадим Крёстный - Серия «ЗОНА ШАНСОНА» - Феникс из пепла.flac" WAVE
TRACK 01 AUDIO
TITLE "В гору (Музыка и слова Вадим Крёстный)"
PERFORMER "Вадим Крёстный"
INDEX 01 00:00:00
TRACK 02 AUDIO
TITLE "Всё у нас в порядочке (Музыка и слова Вадим Крёстный)"
PERFORMER "Вадим Крёстный"
INDEX 01 04:10:31
TRACK 03 AUDIO
TITLE "Купола (Музыка и слова Вадим Крёстный)"
PERFORMER "Вадим Крёстный"
INDEX 01 08:00:67
TRACK 04 AUDIO
TITLE "На посошок ! (Музыка и слова Вадим Крёстный)"
PERFORMER "Вадим Крёстный"
INDEX 01 12:20:66
TRACK 05 AUDIO
TITLE "Тяжела ты, ноша ... (Музыка и слова Вадим Крёстный)"
PERFORMER "Вадим Крёстный"
INDEX 01 16:25:42
TRACK 06 AUDIO
TITLE "Тополя (Музыка и слова Вадим Крёстный)"
PERFORMER "Вадим Крёстный"
INDEX 01 20:20:01
TRACK 07 AUDIO
TITLE "Горбатый (Музыка и слова Вадим Крёстный)"
PERFORMER "Вадим Крёстный"
INDEX 01 24:31:48
TRACK 08 AUDIO
TITLE "К другу я на день рождения ... (Музыка и слова Вадим Крёстный)"
PERFORMER "Вадим Крёстный"
INDEX 01 28:50:16
TRACK 09 AUDIO
TITLE "Полосатый рейс (Музыка и слова Вадим Крёстный)"
PERFORMER "Вадим Крёстный"
INDEX 01 32:16:63
TRACK 10 AUDIO
TITLE "Голубка (Музыка и слова Вадим Крёстный)"
PERFORMER "Вадим Крёстный"
INDEX 01 36:59:25
TRACK 11 AUDIO
TITLE "В парке (Музыка и слова Вадим Крёстный)"
PERFORMER "Вадим Крёстный"
INDEX 01 42:22:24
TRACK 12 AUDIO
TITLE "Привет, Санкт-Петербург ! (Музыка и слова Вадим Крёстный)"
PERFORMER "Вадим Крёстный"
INDEX 01 45:50:03
TRACK 13 AUDIO
TITLE "Памяти река (Музыка и слова Вадим Крёстный)"
PERFORMER "Вадим Крёстный"
INDEX 01 49:37:06
TRACK 14 AUDIO
TITLE "Сладкая такая (Музыка и слова Вадим Крёстный)"
PERFORMER "Вадим Крёстный"
INDEX 01 55:56:06
TRACK 15 AUDIO
TITLE "Сосны, пихты, ели (Музыка и слова Вадим Крёстный)"
PERFORMER "Вадим Крёстный"
INDEX 01 60:15:05
TRACK 16 AUDIO
TITLE "Ты иди (Музыка и слова Вадим Крёстный)"
PERFORMER "Вадим Крёстный"
INDEX 01 64:38:04
TRACK 17 AUDIO
TITLE "Старики мои (Музыка и слова Вадим Крёстный)"
PERFORMER "Вадим Крёстный"
INDEX 01 68:48:40
TRACK 18 AUDIO
TITLE "Феникс из пепла (Музыка и слова Вадим Крёстный)"
PERFORMER "Вадим Крёстный"
INDEX 01 72:38:02
[torrents24.ru].t77625.torrent 
Торрент: Зарегистрирован [ 2019-03-12 09:25 ] · 273E593A99223F1A719EA90D582D1D0F4E41398E

Скачать .torrent

Скачать

5 KB

Статус: проверено
Скачан: 0 раз
Размер: 731 MB
terms.php
[Профиль] [ЛС]
Показать сообщения:    
Ответить на тему

Текущее время: 23-Май 02:11

Часовой пояс: UTC + 3



Вы не можете начинать темы
Вы не можете отвечать на сообщения
Вы не можете редактировать свои сообщения
Вы не можете удалять свои сообщения
Вы не можете голосовать в опросах
Вы не можете прикреплять файлы к сообщениям
Вы можете скачивать файлы

Интересное в сети